BILL36
超凡入圣№

[2024] [美国] [剧情] [WEB-1080P] 鳕鱼角 第三季[第03集][无字片源].Hightown.S03.1080p.Stan.WEB-DL.DDP.5.1.H.264-BlackTV 2.30GB

-->

完整标题:鳕鱼角 第三季[第03集][无字片源].Hightown.S03.1080p.Stan.WEB-DL.DDP.5.1.H.264-BlackTV 2.30GB



◎标  题 鳕鱼角 第三季
◎片  名 Hightown Season 3
◎年  代 2024
◎产  地 美国
◎类  别 剧情 / 犯罪
◎语  言 英语
◎IMDb链接 https://www.imdb.com/title/tt18361938/
◎豆瓣链接 https://movie.douban.com/subject/35789302/
◎演  员 阿特金斯·埃斯特蒙德 Atkins Estimond
      詹姆斯·戴尔 James Badge Dale

部分资源为软字幕,移动端推荐播放器:MxPlayer,nPlayer,infuse ,其他播放器请自行尝试。

部分资源为软字幕,电脑端推荐播放器:PotPlayer,完美解码,KMPLAYER,其他播放器请自行尝试。

##### MediaInfo ######
General
Unique ID : 299984160148878780693039911285792466028 (0xE1AED902083B1A7FD1C4390D1B64646C)
Complete name : Hightown.S03E03.Fall.Brook.1080p.Stan.WEB-DL.DDP.5.1.H.264-BlackTV.mkv
Duration : 51 min 17 s
Overall bit rate : 6 409 kb/s

Video
ID : 1
Format : AVC
Format/Info : Advanced Video Codec
Format profile : High@L4
Format settings : CABAC / 4 Ref Frames
Format settings, CABAC : Yes
Format settings, Reference frames : 4 frames
Codec ID : V_MPEG4/ISO/AVC
Duration : 51 min 17 s
Bit rate : 6 023 kb/s
Width : 1 920 pixels
Height : 1 080 pixels
Display aspect ratio : 16:9
Frame rate mode : Constant
Frame rate : 23.976 (24000/1001) FPS
Color space : YUV
Chroma subsampling : 4:2:0
Bit depth : 8 bits
Scan type : Progressive
Bits/(Pixel*Frame) : 0.121
Stream size : 2.16 GiB (94%)
Language : English
Default : Yes
Forced : No
Color range : Limited
Color primaries : BT.709
Transfer characteristics : BT.709
Matrix coefficients : BT.709

Audio
ID : 2
Format : E-AC-3
Format/Info : Enhanced AC-3
Commercial name : Dolby Digital Plus
Codec ID : A_EAC3
Duration : 51 min 17 s
Bit rate mode : Constant
Bit rate : 384 kb/s
Channel(s) : 6 channels
Channel layout : L R C LFE Ls Rs
Sampling rate : 48.0 kHz
Frame rate : 31.250 FPS (1536 SPF)
Compression mode : Lossy
Stream size : 141 MiB (6%)
Language : English
Service kind : Complete Main
Default : Yes
Forced : No

Text
ID : 3
Format : UTF-8
Codec ID : S_TEXT/UTF8
Codec ID/Info : UTF-8 Plain Text
Duration : 49 min 27 s
Bit rate : 86 b/s
Frame rate : 0.369 FPS
Count of elements : 1094
Stream size : 31.3 KiB (0%)
Title : SDH
Language : English
Default : No
Forced : No


点击图片可查看大图

软字幕无法在截图上展现,HDR版本/杜比视界版本截图会出现颜色异常,请使用支持的设备播放!



1 个附件 售价 大小 下载 时间

Hightown.S03.1080p.Stan.WEB-DL.DDP.5.1.H.264-BlackTV[1LOU.ME].torrent 0 金币 8.46K 77 次 14天前

#1楼
发帖时间:2024-02-13 10:04:36   |   回复数:0
游客组