BILL36
超凡入圣№

[2024] [大陆] [剧情] [WEB-4K] 祈今朝[第33-34集][国语配音/中文字幕].Sword.and.Fairy.S01.2024.2160p.WEB-DL.H265.DDP-BlackTV 3

-->

完整标题:祈今朝[第33-34集][国语配音/中文字幕].Sword.and.Fairy.S01.2024.2160p.WEB-DL.H265.DDP-BlackTV 3.42GB



◎标  题 祈今朝
◎译  名 仙剑六祈今朝 / 仙剑奇侠传六 / 仙剑六 / Sword and Fairy 6
◎年  代 2024
◎产  地 中国大陆
◎类  别 剧情 / 爱情 / 奇幻 / 古装
◎语  言 汉语普通话
◎IMDb链接 https://www.imdb.com/title/tt30949068/
◎豆瓣链接 https://movie.douban.com/subject/35597502/
◎导  演 刘国楠 Guonan Liu
◎编  剧 汪洪 Hong Wang
      陈泰龙 Tailong Chen
      余堃 Kun Yu
◎演  员 许凯 Kai Xu
      虞书欣 Shuxin Yu
      付辛博 Xinbo Fu
      万鹏 Peng Wan
      白冰可 Bingke Bai
      周历杰 Zhan Zhou
      薛八一 Bayi Xue
      加奈那 Cana
      韩栋 Dong Han
      刘敏 Min Liu
      陈紫函 Zihan Chen
      巩峥 Zheng Gong
      王子睿 Zirui Wang
      陈芷琰 Zhiyan Chen
      傅铂涵 Bohan Fu
      金梦翼 Mengyi Jin
      钟祺 Qi Zhong
      高飞 Fei Gao
      吴佳诺 Jianuo Wu

◎简  介
    越今朝和越祈二人在乌岩村相伴三年,有着神奇的“共鸣”关系,却对各自的身世一无所知。二人携手闯荡江湖,希望找回过往记忆。双越二人被卷入启魂圣宗作乱和洛家堡血祭等神秘事件之中,而在对抗圣宗过程中意外让越祈被封印的回忆和情感被开启。随着事件发展,双越结识了洛家堡双子洛埋名和洛昭言、千年狼妖闲卿、顾寒江和明绣师徒以及居十方等一众江湖人士,二人的真实身份也逐渐揭开。正武盟、启魂圣宗、衡道众、禺妖族,几大势力接踵而至,谁才是真正的幕后设局人?计中有计,局中有局,不惜舍身改命,只为今朝再聚。

部分资源为软字幕,移动端推荐播放器:MxPlayer,nPlayer,infuse ,其他播放器请自行尝试。

部分资源为软字幕,电脑端推荐播放器:PotPlayer,完美解码,KMPLAYER,其他播放器请自行尝试。

##### MediaInfo ######
General
Unique ID : 178326029303358779770452747983356340987 (0x8628580E69557A7C67E9A5294A62AAFB)
Complete name : Sword.and.Fairy.S01E33.2024.2160p.WEB-DL.H265.DDP-BlackTV.mkv
Duration : 43 min 34 s
Overall bit rate : 6 219 kb/s

Video
ID : 1
Format : HEVC
Format/Info : High Efficiency Video Coding
Format profile : Main@L5@Main
Codec ID : V_MPEGH/ISO/HEVC
Duration : 43 min 34 s
Bit rate : 5 836 kb/s
Width : 3 840 pixels
Height : 1 760 pixels
Display aspect ratio : 2.2:1
Frame rate mode : Constant
Frame rate : 25.000 FPS
Color space : YUV
Chroma subsampling : 4:2:0
Bit depth : 8 bits
Bits/(Pixel*Frame) : 0.035
Stream size : 1.78 GiB (94%)
Writing library : Tencent-V265-1.6.9.1-p1k184g16lh64f4ra1.
Language : Chinese
Default : Yes
Forced : No
Color range : Limited
Color primaries : BT.709
Transfer characteristics : BT.709
Matrix coefficients : BT.709
VENDOR_ID : [0][0][0][0]

Audio #1
ID : 2
Format : E-AC-3
Format/Info : Enhanced AC-3
Commercial name : Dolby Digital Plus
Codec ID : A_EAC3
Duration : 43 min 34 s
Bit rate mode : Constant
Bit rate : 256 kb/s
Channel(s) : 2 channels
Channel layout : L R
Sampling rate : 48.0 kHz
Frame rate : 31.250 FPS (1536 SPF)
Bit depth : 32 bits
Compression mode : Lossy
Delay relative to video : -42 ms
Stream size : 79.8 MiB (4%)
Title : Mandarin [DDP2.0]
Language : Chinese
Service kind : Complete Main
Default : Yes
Forced : No
VENDOR_ID : [0][0][0][0]

Audio #2
ID : 3
Format : AAC LC
Format/Info : Advanced Audio Codec Low Complexity
Codec ID : A_AAC-2
Duration : 43 min 34 s
Bit rate : 125 kb/s
Channel(s) : 2 channels
Channel layout : L R
Sampling rate : 48.0 kHz
Frame rate : 46.875 FPS (1024 SPF)
Compression mode : Lossy
Delay relative to video : -42 ms
Stream size : 39.1 MiB (2%)
Title : Mandarin [AAC2.0]
Language : Chinese
Default : No
Forced : No
VENDOR_ID : [0][0][0][0]


点击图片可查看大图

软字幕无法在截图上展现,HDR版本/杜比视界版本截图会出现颜色异常,请使用支持的设备播放!



1 个附件 售价 大小 下载 时间

Sword.and.Fairy.S01.2024.2160p.WEB-DL.H265.DDP-BlackTV[1LOU.ME].torrent 0 金币 11.36K 140 次 20天前

#1楼
发帖时间:2024-02-12 21:36:45   |   回复数:0
游客组