BILL36
超凡入圣№

[2022] [其它] [其它] [HDTV/HDrip] 内马尔:完美乱局[全3集][简繁英字幕].Neymar.The.Perfect.Chaos.S01.2022.1080p.NF.WEB-DL.x264.DDP5

-->

完整标题:内马尔:完美乱局[全3集][简繁英字幕].Neymar.The.Perfect.Chaos.S01.2022.1080p.NF.WEB-DL.x264.DDP5.1-DDHDTV 8.44GB



◎标  题 内马尔:完美乱局
◎译  名 巴西球星内马尔 / 内马尔 :完美的混乱 / 内马尔:不完美的完美球星 / 内马尔:完美风暴(台) / 尼马:完美乱局(港)
◎片  名 Neymar: The Perfect Chaos
◎年  代 2022
◎产  地 巴西
◎类  别 纪录片 / 运动
◎语  言 葡萄牙语
◎IMDb评分 6.6/10 (4133人评价)
◎IMDb链接 https://www.imdb.com/title/tt16428640/
◎豆瓣评分 8.6/10 (2694人评价)
◎豆瓣链接 https://movie.douban.com/subject/35700908/
◎演  员 大卫·贝克汉姆 David Beckham
      莱昂内尔·梅西 Lionel Messi
      基利安·姆巴佩 Kylian Mbappé
      内马尔 Neymar

◎简  介
    这是历史上最著名、收入最高的运动员之一 — 来见证他不为人知的一面。内马尔叱咤球场,在球场外则是一位备受争议的人物。这部由戴维·查尔斯·罗德里格斯执导的纪录片共分三集,深入了解足球明星小内马尔·达席尔瓦·桑托斯,记录了他在桑托斯的成名之路、他在巴塞罗那俱乐部的光辉岁月,以及他在巴西国家队和巴黎圣日耳曼足球俱乐部的波起云落。与此同时,内马尔背后的营销机器也逐渐掀开面纱 — 一切尽在他父亲的掌控之下。该剧集众星云集,采访了贝克汉姆、梅西、姆巴佩和其他许多传奇人物,他们评价了内马尔在体育史上的地位。

部分资源为软字幕,移动端推荐播放器:MxPlayer,nPlayer,infuse ,其他播放器请自行尝试。

部分资源为软字幕,电脑端推荐播放器:PotPlayer,完美解码,KMPLAYER,其他播放器请自行尝试。

##### MediaInfo ######
General
Complete name : Neymar.The.Perfect.Chaos.S01.E01.2022.1080p.NF.WEB-DL.x264.DDP5.1-DDHDTV.mp4
Duration : 50 min 51 s
Overall bit rate mode : Variable
Overall bit rate : 7 075 kb/s

Video
ID : 1
Format : AVC
Format/Info : Advanced Video Codec
Format profile : High@L4
Format settings : CABAC / 4 Ref Frames
Format settings, CABAC : Yes
Format settings, Reference frames : 4 frames
Codec ID : avc1
Codec ID/Info : Advanced Video Coding
Duration : 50 min 49 s
Bit rate mode : Variable
Bit rate : 2 585 kb/s
Maximum bit rate : 20.0 Mb/s
Width : 1 920 pixels
Height : 1 080 pixels
Display aspect ratio : 16:9
Frame rate mode : Constant
Frame rate : 23.976 (24000/1001) FPS
Color space : YUV
Chroma subsampling : 4:2:0
Bit depth : 8 bits
Scan type : Progressive
Bits/(Pixel*Frame) : 0.052
Stream size : 940 MiB (37%)
Title : [email protected]
Writing library : x264 core 148 r2727 7d026e8
Encoding settings : cabac=1 / ref=4 / deblock=1:0:0 / analyse=0x3:0x111 / me=umh / subme=10 / psy=1 / psy_rd=1.00:0.00 / mixed_ref=1 / me_range=120 / chroma_me=1 / trellis=2 / 8x8dct=1 / cqm=0 / deadzone=21,11 / fast_pskip=1 / chroma_qp_offset=-2 / threads=8 / lookahead_threads=2 / sliced_threads=0 / nr=0 / decimate=1 / interlaced=0 / bluray_compat=0 / stitchable=1 / constrained_intra=0 / bframes=16 / b_pyramid=2 / b_adapt=2 / b_bias=0 / direct=3 / weightb=1 / open_gop=0 / weightp=2 / keyint=240 / keyint_min=121 / scenecut=0 / intra_refresh=0 / rc_lookahead=240 / rc=crf / mbtree=1 / crf=19.0 / qcomp=0.50 / qpmin=6 / qpmax=51 / qpstep=4 / vbv_maxrate=20000 / vbv_bufsize=25000 / crf_max=0.0 / nal_hrd=vbr / filler=0 / ip_ratio=1.40 / aq=1:0.80
Codec configuration box : avcC

Audio #1
ID : 3
Format : E-AC-3
Format/Info : Enhanced AC-3
Commercial name : Dolby Digital Plus
Codec ID : ec-3
Duration : 50 min 51 s
Bit rate mode : Constant
Bit rate : 640 kb/s
Channel(s) : 6 channels
Channel layout : L R C LFE Ls Rs
Sampling rate : 48.0 kHz
Frame rate : 31.250 FPS (1536 SPF)
Compression mode : Lossy
Stream size : 233 MiB (9%)
Title : English
Language : English
Service kind : Complete Main
Default : Yes
Alternate group : 2

Audio #2
ID : 4
Format : E-AC-3
Format/Info : Enhanced AC-3
Commercial name : Dolby Digital Plus
Codec ID : ec-3
Duration : 50 min 51 s
Bit rate mode : Constant
Bit rate : 640 kb/s
Channel(s) : 6 channels
Channel layout : L R C LFE Ls Rs
Sampling rate : 48.0 kHz
Frame rate : 31.250 FPS (1536 SPF)
Compression mode : Lossy
Stream size : 233 MiB (9%)
Title : English - Audio Description
Language : English
Service kind : Complete Main
Default : Yes
Alternate group : 3

Audio #3
ID : 5
Format : E-AC-3
Format/Info : Enhanced AC-3
Commercial name : Dolby Digital Plus
Codec ID : ec-3
Duration : 50 min 51 s
Bit rate mode : Constant
Bit rate : 640 kb/s
Channel(s) : 6 channels
Channel layout : L R C LFE Ls Rs
Sampling rate : 48.0 kHz
Frame rate : 31.250 FPS (1536 SPF)
Compression mode : Lossy
Stream size : 233 MiB (9%)
Title : European Spanish
Language : Spanish
Service kind : Complete Main
Default : Yes
Alternate group : 4

Audio #4
ID : 6
Format : E-AC-3
Format/Info : Enhanced AC-3
Commercial name : Dolby Digital Plus
Codec ID : ec-3
Duration : 50 min 51 s
Bit rate mode : Constant
Bit rate : 640 kb/s
Channel(s) : 6 channels
Channel layout : L R C LFE Ls Rs
Sampling rate : 48.0 kHz
Frame rate : 31.250 FPS (1536 SPF)
Compression mode : Lossy
Stream size : 233 MiB (9%)
Title : French
Language : French
Service kind : Complete Main
Default : Yes
Alternate group : 5

Audio #5
ID : 7
Format : E-AC-3
Format/Info : Enhanced AC-3
Commercial name : Dolby Digital Plus
Codec ID : ec-3
Duration : 50 min 51 s
Bit rate mode : Constant
Bit rate : 640 kb/s
Channel(s) : 6 channels
Channel layout : L R C LFE Ls Rs
Sampling rate : 48.0 kHz
Frame rate : 31.250 FPS (1536 SPF)
Compression mode : Lossy
Stream size : 233 MiB (9%)
Title : Brazilian Portuguese [Original]
Language : Portuguese
Service kind : Complete Main
Default : Yes
Alternate group : 6

Audio #6
ID : 8
Format : E-AC-3
Format/Info : Enhanced AC-3
Commercial name : Dolby Digital Plus
Codec ID : ec-3
Duration : 50 min 51 s
Bit rate mode : Constant
Bit rate : 640 kb/s
Channel(s) : 6 channels
Channel layout : L R C LFE Ls Rs
Sampling rate : 48.0 kHz
Frame rate : 31.250 FPS (1536 SPF)
Compression mode : Lossy
Stream size : 233 MiB (9%)
Title : Brazilian Portuguese - Audio Description
Language : Portuguese
Service kind : Complete Main
Default : Yes
Alternate group : 7

Audio #7
ID : 9
Format : E-AC-3
Format/Info : Enhanced AC-3
Commercial name : Dolby Digital Plus
Codec ID : ec-3
Duration : 50 min 51 s
Bit rate mode : Constant
Bit rate : 640 kb/s
Channel(s) : 6 channels
Channel layout : L R C LFE Ls Rs
Sampling rate : 48.0 kHz
Frame rate : 31.250 FPS (1536 SPF)
Compression mode : Lossy
Stream size : 233 MiB (9%)
Title : Brazilian Portuguese - Dubbed
Service kind : Complete Main
Default : Yes
Alternate group : 8

Text #1
ID : 10
Format : Timed Text
Muxing mode : sbtl
Codec ID : tx3g
Duration : 49 min 1 s
Bit rate mode : Variable
Bit rate : 65 b/s
Frame rate : 0.416 FPS
Stream size : 23.3 KiB (0%)
Title : English
Language : English
Default : Yes
Forced : No
Alternate group : 9

Text #2
ID : 11
Format : Timed Text
Muxing mode : sbtl
Codec ID : tx3g
Duration : 45 min 25 s
Bit rate mode : Variable
Bit rate : 92 b/s
Frame rate : 0.565 FPS
Stream size : 30.4 KiB (0%)
Title : English [CC]
Language : English
Default : No
Forced : No
Alternate group : 10

Text #3
ID : 12
Format : Timed Text
Muxing mode : sbtl
Codec ID : tx3g
Duration : 49 min 3 s
Bit rate mode : Variable
Bit rate : 67 b/s
Frame rate : 0.412 FPS
Stream size : 24.0 KiB (0%)
Title : European Spanish
Language : Spanish
Default : No
Forced : No
Alternate group : 11

Text #4
ID : 13
Format : Timed Text
Muxing mode : sbtl
Codec ID : tx3g
Duration : 49 min 3 s
Bit rate mode : Variable
Bit rate : 72 b/s
Frame rate : 0.432 FPS
Stream size : 25.8 KiB (0%)
Title : French
Language : French
Default : No
Forced : No
Alternate group : 12

Text #5
ID : 14
Format : Timed Text
Muxing mode : sbtl
Codec ID : tx3g
Duration : 49 min 3 s
Bit rate mode : Variable
Bit rate : 99 b/s
Frame rate : 0.523 FPS
Stream size : 35.6 KiB (0%)
Title : Brazilian Portuguese [CC]
Language : Portuguese
Default : No
Forced : No
Alternate group : 13

Text #6
ID : 15
Format : Timed Text
Muxing mode : sbtl
Codec ID : tx3g
Duration : 49 min 3 s
Bit rate mode : Variable
Bit rate : 67 b/s
Frame rate : 0.464 FPS
Stream size : 24.1 KiB (0%)
Title : Simplified Chinese
Language : Chinese
Default : No
Forced : No
Alternate group : 14

Text #7
ID : 16
Format : Timed Text
Muxing mode : sbtl
Codec ID : tx3g
Duration : 48 min 39 s
Bit rate mode : Variable
Bit rate : 66 b/s
Frame rate : 0.470 FPS
Stream size : 23.5 KiB (0%)
Title : Traditional Chinese
Language : Chinese
Default : No
Forced : No
Alternate group : 15




1 个附件 售价 大小 下载 时间

Neymar.The.Perfect.Chaos.S01.2022.1080p.NF.WEB-DL.x264.DDP5.1-DDHDTV[1LOU.ME].torrent 0 金币 24.08K 392 次 2月前

#1楼
发帖时间:2023-12-02 13:24:36   |   回复数:0
游客组