BILL36
超凡入圣№

[2023] [韩国] [剧情] [WEB-1080P] 与恶魔有约[第03集][简繁英字幕].My.Demon.S01.1080p.NF.WEB-DL.DDP.2.0.H.264-BlackTV 2.43GB

-->

完整标题:与恶魔有约[第03集][简繁英字幕].My.Demon.S01.1080p.NF.WEB-DL.DDP.2.0.H.264-BlackTV 2.43GB



◎标  题 与恶魔有约
◎译  名 我的恶魔 / My Demon / 我的魔鬼
◎片  名 마이데몬
◎年  代 2023
◎产  地 韩国
◎类  别 剧情 / 爱情 / 奇幻
◎语  言 韩语
◎IMDb链接 https://www.imdb.com/title//
◎豆瓣链接 https://movie.douban.com/subject/36219186/
◎导  演 金章汉 Kim Jang-han
      权多顺 Da-som Kwon
◎编  剧 崔雅一 Choi Ah-il
◎演  员 金裕贞 Yoo-Jeong Kim
      宋江 Kang Song
      李相二 Sang-yi Lee
      金海淑 Hae-suk Kim
      金太勋 Tae-hoon Kim
      赵妍熙 Seon-joo Jo
      李允芝 Yun-ji Lee
      姜多温
      朴道允
      徐正妍 Seo Jung-yeon
      李智媛 Ji-won Lee
      赵慧珠 Hye-joo Jo
      许政度 Jeong-do Heo
      朴真宇 Jin-woo Park
      金奎彬
      洪镇基 Jin-gi Hong
      车清华 Cheong-hwa Cha
      郑顺元 Soon-won Jeong
      林哲亨 Lim Chul-hyung
      全锡灿 Suk-chan Jun
      周锡泰 Suk-tae Joo
      太元硕 Tae Won-suk
      安世河 Se-ha Ahn

◎简  介
    无情的恶魔郑九元(宋江 饰)与高冷的女继承人都到曦(金裕贞 饰)发生纠葛后失去了能力,而那女人可能握有他失去的能力以及他的心。

部分资源为软字幕,移动端推荐播放器:MxPlayer,nPlayer,infuse ,其他播放器请自行尝试。

部分资源为软字幕,电脑端推荐播放器:PotPlayer,完美解码,KMPLAYER,其他播放器请自行尝试。

##### MediaInfo ######
General
Unique ID : 234774904691334568143026230863542518034 (0xB0A0007D6860D19F089718B191768112)
Complete name : My.Demon.S01E03.Joining.Hands.With.a.Demon.1080p.NF.WEB-DL.DDP.2.0.H.264-BlackTV.mkv
Duration : 1 h 7 min
Overall bit rate mode : Variable
Overall bit rate : 5 121 kb/s

Video
ID : 1
Format : AVC
Format/Info : Advanced Video Codec
Format profile : Main@L4
Format settings : CABAC / 3 Ref Frames
Format settings, CABAC : Yes
Format settings, Reference frames : 3 frames
Codec ID : V_MPEG4/ISO/AVC
Duration : 1 h 7 min
Bit rate mode : Variable
Bit rate : 5 000 kb/s
Maximum bit rate : 7 500 kb/s
Width : 1 920 pixels
Height : 1 080 pixels
Display aspect ratio : 16:9
Frame rate mode : Constant
Frame rate : 23.976 (24000/1001) FPS
Color space : YUV
Chroma subsampling : 4:2:0
Bit depth : 8 bits
Scan type : Progressive
Bits/(Pixel*Frame) : 0.101
Stream size : 2.36 GiB (97%)
Writing library : x264 core 148 r2727 7d026e8
Encoding settings : cabac=1 / ref=3 / deblock=1:0:0 / analyse=0x1:0x111 / me=umh / subme=10 / psy=1 / psy_rd=1.00:0.00 / mixed_ref=1 / me_range=24 / chroma_me=1 / trellis=2 / 8x8dct=0 / cqm=0 / deadzone=21,11 / fast_pskip=1 / chroma_qp_offset=-2 / threads=6 / lookahead_threads=1 / sliced_threads=0 / nr=0 / decimate=1 / interlaced=0 / bluray_compat=0 / stitchable=1 / constrained_intra=0 / bframes=2 / b_pyramid=0 / b_adapt=2 / b_bias=0 / direct=3 / weightb=1 / open_gop=0 / weightp=2 / keyint=240 / keyint_min=121 / scenecut=0 / intra_refresh=0 / rc_lookahead=48 / rc=2pass / mbtree=1 / bitrate=5000 / ratetol=1.0 / qcomp=0.50 / qpmin=6 / qpmax=51 / qpstep=4 / cplxblur=20.0 / qblur=0.5 / vbv_maxrate=7500 / vbv_bufsize=10000 / nal_hrd=vbr / filler=0 / ip_ratio=1.40 / aq=1:1.00
Language : Korean
Default : Yes
Forced : No

Audio
ID : 2
Format : E-AC-3
Format/Info : Enhanced AC-3
Commercial name : Dolby Digital Plus
Codec ID : A_EAC3
Duration : 1 h 7 min
Bit rate mode : Constant
Bit rate : 128 kb/s
Channel(s) : 2 channels
Channel layout : L R
Sampling rate : 48.0 kHz
Frame rate : 31.250 FPS (1536 SPF)
Compression mode : Lossy
Stream size : 62.1 MiB (2%)
Language : Korean
Service kind : Complete Main
Default : Yes
Forced : No

Text #1
ID : 3
Format : UTF-8
Codec ID : S_TEXT/UTF8
Codec ID/Info : UTF-8 Plain Text
Duration : 35 min 40 s
Bit rate : 1 b/s
Frame rate : 0.006 FPS
Count of elements : 13
Stream size : 329 Bytes (0%)
Title : Forced
Language : Korean
Default : Yes
Forced : Yes

Text #2
ID : 4
Format : UTF-8
Codec ID : S_TEXT/UTF8
Codec ID/Info : UTF-8 Plain Text
Duration : 1 h 7 min
Bit rate : 80 b/s
Frame rate : 0.274 FPS
Count of elements : 1111
Stream size : 39.9 KiB (0%)
Title : SDH
Language : Korean
Default : No
Forced : No

Text #3
ID : 5
Format : UTF-8
Codec ID : S_TEXT/UTF8
Codec ID/Info : UTF-8 Plain Text
Duration : 1 h 7 min
Bit rate : 55 b/s
Frame rate : 0.230 FPS
Count of elements : 926
Stream size : 27.3 KiB (0%)
Title : Simplified
Language : Chinese
Default : No
Forced : No

Text #4
ID : 6
Format : UTF-8
Codec ID : S_TEXT/UTF8
Codec ID/Info : UTF-8 Plain Text
Duration : 1 h 7 min
Bit rate : 56 b/s
Frame rate : 0.230 FPS
Count of elements : 926
Stream size : 27.6 KiB (0%)
Title : Traditional
Language : Chinese
Default : No
Forced : No

Text #5
ID : 7
Format : UTF-8
Codec ID : S_TEXT/UTF8
Codec ID/Info : UTF-8 Plain Text
Duration : 1 h 7 min
Bit rate : 88 b/s
Frame rate : 0.229 FPS
Count of elements : 923
Stream size : 43.4 KiB (0%)
Language : Arabic
Default : No
Forced : No

Text #6
ID : 8
Format : UTF-8
Codec ID : S_TEXT/UTF8
Codec ID/Info : UTF-8 Plain Text
Duration : 1 h 7 min
Bit rate : 52 b/s
Frame rate : 0.229 FPS
Count of elements : 923
Stream size : 25.6 KiB (0%)
Language : Czech
Default : No
Forced : No

Text #7
ID : 9
Format : UTF-8
Codec ID : S_TEXT/UTF8
Codec ID/Info : UTF-8 Plain Text
Duration : 1 h 6 min
Bit rate : 55 b/s
Frame rate : 0.231 FPS
Count of elements : 929
Stream size : 27.0 KiB (0%)
Language : Danish
Default : No
Forced : No

Text #8
ID : 10
Format : UTF-8
Codec ID : S_TEXT/UTF8
Codec ID/Info : UTF-8 Plain Text
Duration : 1 h 6 min
Bit rate : 58 b/s
Frame rate : 0.229 FPS
Count of elements : 921
Stream size : 28.8 KiB (0%)
Language : German
Default : No
Forced : No

Text #9
ID : 11
Format : UTF-8
Codec ID : S_TEXT/UTF8
Codec ID/Info : UTF-8 Plain Text
Duration : 1 h 7 min
Bit rate : 93 b/s
Frame rate : 0.229 FPS
Count of elements : 923
Stream size : 45.8 KiB (0%)
Language : Greek
Default : No
Forced : No

Text #10
ID : 12
Format : UTF-8
Codec ID : S_TEXT/UTF8
Codec ID/Info : UTF-8 Plain Text
Duration : 1 h 6 min
Bit rate : 56 b/s
Frame rate : 0.228 FPS
Count of elements : 915
Stream size : 27.5 KiB (0%)
Language : English
Default : No
Forced : No

Text #11
ID : 13
Format : UTF-8
Codec ID : S_TEXT/UTF8
Codec ID/Info : UTF-8 Plain Text
Duration : 1 h 7 min
Bit rate : 54 b/s
Frame rate : 0.229 FPS
Count of elements : 923
Stream size : 26.7 KiB (0%)
Language : Spanish
Default : No
Forced : No

Text #12
ID : 14
Format : UTF-8
Codec ID : S_TEXT/UTF8
Codec ID/Info : UTF-8 Plain Text
Duration : 1 h 6 min
Bit rate : 55 b/s
Frame rate : 0.229 FPS
Count of elements : 920
Stream size : 27.2 KiB (0%)
Language : Finnish
Default : No
Forced : No

Text #13
ID : 15
Format : UTF-8
Codec ID : S_TEXT/UTF8
Codec ID/Info : UTF-8 Plain Text
Duration : 1 h 6 min
Bit rate : 60 b/s
Frame rate : 0.230 FPS
Count of elements : 925
Stream size : 29.7 KiB (0%)
Language : fil
Default : No
Forced : No

Text #14
ID : 16
Format : UTF-8
Codec ID : S_TEXT/UTF8
Codec ID/Info : UTF-8 Plain Text
Duration : 1 h 7 min
Bit rate : 57 b/s
Frame rate : 0.223 FPS
Count of elements : 900
Stream size : 28.1 KiB (0%)
Language : French
Default : No
Forced : No

Text #15
ID : 17
Format : UTF-8
Codec ID : S_TEXT/UTF8
Codec ID/Info : UTF-8 Plain Text
Duration : 1 h 7 min
Bit rate : 82 b/s
Frame rate : 0.229 FPS
Count of elements : 923
Stream size : 40.7 KiB (0%)
Language : Hebrew
Default : No
Forced : No

Text #16
ID : 18
Format : UTF-8
Codec ID : S_TEXT/UTF8
Codec ID/Info : UTF-8 Plain Text
Duration : 1 h 7 min
Bit rate : 51 b/s
Frame rate : 0.229 FPS
Count of elements : 922
Stream size : 25.1 KiB (0%)
Language : Croatian
Default : No
Forced : No

Text #17
ID : 19
Format : UTF-8
Codec ID : S_TEXT/UTF8
Codec ID/Info : UTF-8 Plain Text
Duration : 1 h 7 min
Bit rate : 53 b/s
Frame rate : 0.229 FPS
Count of elements : 922
Stream size : 26.3 KiB (0%)
Language : Hungarian
Default : No
Forced : No

Text #18
ID : 20
Format : UTF-8
Codec ID : S_TEXT/UTF8
Codec ID/Info : UTF-8 Plain Text
Duration : 1 h 6 min
Bit rate : 56 b/s
Frame rate : 0.229 FPS
Count of elements : 921
Stream size : 27.9 KiB (0%)
Language : Indonesian
Default : No
Forced : No

Text #19
ID : 21
Format : UTF-8
Codec ID : S_TEXT/UTF8
Codec ID/Info : UTF-8 Plain Text
Duration : 1 h 6 min
Bit rate : 53 b/s
Frame rate : 0.229 FPS
Count of elements : 920
Stream size : 26.2 KiB (0%)
Language : Italian
Default : No
Forced : No

Text #20
ID : 22
Format : UTF-8
Codec ID : S_TEXT/UTF8
Codec ID/Info : UTF-8 Plain Text
Duration : 1 h 7 min
Bit rate : 51 b/s
Frame rate : 0.209 FPS
Count of elements : 841
Stream size : 25.4 KiB (0%)
Language : Japanese
Default : No
Forced : No

Text #21
ID : 23
Format : UTF-8
Codec ID : S_TEXT/UTF8
Codec ID/Info : UTF-8 Plain Text
Duration : 1 h 6 min
Bit rate : 56 b/s
Frame rate : 0.229 FPS
Count of elements : 920
Stream size : 27.9 KiB (0%)
Language : Malay
Default : No
Forced : No

Text #22
ID : 24
Format : UTF-8
Codec ID : S_TEXT/UTF8
Codec ID/Info : UTF-8 Plain Text
Duration : 1 h 6 min
Bit rate : 53 b/s
Frame rate : 0.229 FPS
Count of elements : 920
Stream size : 26.4 KiB (0%)
Language : Norwegian Bokmal
Default : No
Forced : No

Text #23
ID : 25
Format : UTF-8
Codec ID : S_TEXT/UTF8
Codec ID/Info : UTF-8 Plain Text
Duration : 1 h 6 min
Bit rate : 55 b/s
Frame rate : 0.229 FPS
Count of elements : 920
Stream size : 27.0 KiB (0%)
Language : Dutch
Default : No
Forced : No

Text #24
ID : 26
Format : UTF-8
Codec ID : S_TEXT/UTF8
Codec ID/Info : UTF-8 Plain Text
Duration : 1 h 7 min
Bit rate : 50 b/s
Frame rate : 0.229 FPS
Count of elements : 922
Stream size : 24.8 KiB (0%)
Language : Polish
Default : No
Forced : No

Text #25
ID : 27
Format : UTF-8
Codec ID : S_TEXT/UTF8
Codec ID/Info : UTF-8 Plain Text
Duration : 1 h 7 min
Bit rate : 52 b/s
Frame rate : 0.229 FPS
Count of elements : 923
Stream size : 25.9 KiB (0%)
Language : Portuguese
Default : No
Forced : No

Text #26
ID : 28
Format : UTF-8
Codec ID : S_TEXT/UTF8
Codec ID/Info : UTF-8 Plain Text
Duration : 1 h 7 min
Bit rate : 55 b/s
Frame rate : 0.228 FPS
Count of elements : 919
Stream size : 27.3 KiB (0%)
Language : Romanian
Default : No
Forced : No

Text #27
ID : 29
Format : UTF-8
Codec ID : S_TEXT/UTF8
Codec ID/Info : UTF-8 Plain Text
Duration : 1 h 7 min
Bit rate : 89 b/s
Frame rate : 0.229 FPS
Count of elements : 923
Stream size : 43.8 KiB (0%)
Language : Russian
Default : No
Forced : No

Text #28
ID : 30
Format : UTF-8
Codec ID : S_TEXT/UTF8
Codec ID/Info : UTF-8 Plain Text
Duration : 1 h 6 min
Bit rate : 55 b/s
Frame rate : 0.229 FPS
Count of elements : 921
Stream size : 27.4 KiB (0%)
Language : Swedish
Default : No
Forced : No

Text #29
ID : 31
Format : UTF-8
Codec ID : S_TEXT/UTF8
Codec ID/Info : UTF-8 Plain Text
Duration : 1 h 7 min
Bit rate : 147 b/s
Frame rate : 0.229 FPS
Count of elements : 923
Stream size : 72.3 KiB (0%)
Language : Thai
Default : No
Forced : No

Text #30
ID : 32
Format : UTF-8
Codec ID : S_TEXT/UTF8
Codec ID/Info : UTF-8 Plain Text
Duration : 1 h 6 min
Bit rate : 55 b/s
Frame rate : 0.229 FPS
Count of elements : 920
Stream size : 27.0 KiB (0%)
Language : Turkish
Default : No
Forced : No

Text #31
ID : 33
Format : UTF-8
Codec ID : S_TEXT/UTF8
Codec ID/Info : UTF-8 Plain Text
Duration : 1 h 7 min
Bit rate : 91 b/s
Frame rate : 0.229 FPS
Count of elements : 923
Stream size : 44.9 KiB (0%)
Language : Ukrainian
Default : No
Forced : No

Text #32
ID : 34
Format : UTF-8
Codec ID : S_TEXT/UTF8
Codec ID/Info : UTF-8 Plain Text
Duration : 1 h 7 min
Bit rate : 75 b/s
Frame rate : 0.229 FPS
Count of elements : 923
Stream size : 37.1 KiB (0%)
Language : Vietnamese
Default : No
Forced : No

Menu
00:00:05.005 : en:Opening Credits
00:00:40.999 : en:Chapter 01
01:07:45.000 : en:End Credits


点击图片可查看大图

软字幕无法在截图上展现,HDR版本/杜比视界版本截图会出现颜色异常,请使用支持的设备播放!



1 个附件 售价 大小 下载 时间

My.Demon.S01.1080p.NF.WEB-DL.DDP.2.0.H.264-BlackTV[1LOU.ME].torrent 0 金币 8.81K 1680 次 2月前

#1楼
发帖时间:2023-12-02 13:24:06   |   回复数:0
游客组