BILL36
超凡入圣№

[2023] [日本] [剧情] [HDTV/HDrip] 昨日的美食 第二季[第09集][中文字幕].Kinou.Nani.Tabeta.S02.2023.1080p.KKTV.WEB-DL.x264.AAC-DDHD

-->

完整标题:昨日的美食 第二季[第09集][中文字幕].Kinou.Nani.Tabeta.S02.2023.1080p.KKTV.WEB-DL.x264.AAC-DDHDTV 0.67GB



◎标  题 昨日的美食 第二季
◎译  名 昨日的美食2 / What Did You Eat Yesterday?
◎片  名 きのう何食べた? Season 2
◎年  代 2023
◎产  地 日本
◎类  别 剧情 / 同性 / 家庭
◎语  言 日语
◎IMDb链接 https://www.imdb.com/title//
◎豆瓣评分 9.3/10 (1738人评价)
◎豆瓣链接 https://movie.douban.com/subject/36407250/
◎导  演 中江和仁 Kazuhito Nakae
      松本佳奈 Kana Matsumoto
      平川大辅 Daisuke Hirakawa
◎编  剧 安达奈绪子 Naoko Adachi
      吉永史 Fumi Yoshinaga
◎演  员 西岛秀俊 Hidetoshi Nishijima
      内野圣阳 Masaaki Uchino
      山本耕史 Kôji Yamamoto
      矶村勇斗 Hayato Isomura
      槙田雄司 Makita Sports
      田中美佐子 Tanaka Misako
      田山凉成 Ryôsei Tayama
      梶芽衣子 Meiko Kaji
      高泉淳子 Atsuko Takaizumi
      チャンカワイ Chan Kawai
      中村由利佳 Yurika Nakamura
      奥贯薫 Kaoru Okunuki
      松山爱里 Airi Matsuyama
      椿弓里奈 Yurina Tsubaki
      矢柴俊博 Toshihiro Yashiba
      真凛 Marin Honda
      唯野未步子 Miako Tadano
      朝仓亚纪 Aki Asakura
      坂东龙汰 Ryota Bando
      及川光博 Mitsuhiro Oikawa

◎简  介
    律师笕史朗(西岛秀俊 饰)和美容师矢吹贤二(内野圣阳 饰)是一对住在市区某栋公寓的同 志情侣。既然生小孩无望,为了攒存养老基金,笕律师豁出去了。左扣男友的零用钱,右向老家伸手讨罐头,还要将每个月的餐费控制在二万五千日币以下。吃得好还不够,吃得省才厉害,且看笕律师如何大展身手。

部分资源为软字幕,移动端推荐播放器:MxPlayer,nPlayer,infuse ,其他播放器请自行尝试。

部分资源为软字幕,电脑端推荐播放器:PotPlayer,完美解码,KMPLAYER,其他播放器请自行尝试。

##### MediaInfo ######
General
Unique ID : 62808219236478555998564447917457616219 (0x2F406C4AEA533028D3118F6960FD2D5B)
Complete name : Kinou.Nani.Tabeta.S02E09.2023.1080p.KKTV.WEB-DL.x264.AAC-DDHDTV.mkv
Duration : 29 min 59 s
Overall bit rate : 3 203 kb/s

Video
ID : 1
Format : AVC
Format/Info : Advanced Video Codec
Format profile : [email protected]
Format settings : CABAC / 5 Ref Frames
Format settings, CABAC : Yes
Format settings, Reference frames : 5 frames
Format settings, GOP : M=4, N=30
Codec ID : V_MPEG4/ISO/AVC
Duration : 29 min 59 s
Bit rate : 3 000 kb/s
Width : 1 920 pixels
Height : 1 080 pixels
Display aspect ratio : 16:9
Frame rate mode : Constant
Frame rate : 29.970 (30000/1001) FPS
Color space : YUV
Chroma subsampling : 4:2:0
Bit depth : 8 bits
Scan type : Progressive
Bits/(Pixel*Frame) : 0.048
Stream size : 645 MiB (94%)
Writing library : x264 core 142
Encoding settings : cabac=1 / ref=5 / deblock=1:0:0 / analyse=0x3:0x113 / me=umh / subme=9 / psy=1 / psy_rd=1.00:0.00 / mixed_ref=1 / me_range=32 / chroma_me=1 / trellis=1 / 8x8dct=1 / cqm=0 / deadzone=21,11 / fast_pskip=1 / chroma_qp_offset=-2 / threads=12 / lookahead_threads=1 / sliced_threads=0 / nr=0 / decimate=1 / interlaced=0 / bluray_compat=0 / stitchable=1 / constrained_intra=0 / bframes=3 / b_pyramid=2 / b_adapt=1 / b_bias=0 / direct=3 / weightb=1 / open_gop=0 / weightp=2 / keyint=30 / keyint_min=3 / scenecut=0 / intra_refresh=0 / rc_lookahead=40 / rc=abr / mbtree=1 / bitrate=3000 / ratetol=1.0 / qcomp=0.60 / qpmin=0 / qpmax=69 / qpstep=4 / vbv_maxrate=4500 / vbv_bufsize=6750 / nal_hrd=none / filler=0 / ip_ratio=1.40 / aq=1:1.00
Language : English
Default : Yes
Forced : No

Audio
ID : 4
Format : AAC LC
Format/Info : Advanced Audio Codec Low Complexity
Codec ID : A_AAC-2
Duration : 29 min 59 s
Bit rate : 192 kb/s
Channel(s) : 2 channels
Channel layout : L R
Sampling rate : 44.1 kHz
Frame rate : 43.066 FPS (1024 SPF)
Compression mode : Lossy
Stream size : 41.2 MiB (6%)
Title : Japanese
Language : Japanese
Default : Yes
Forced : No

Text #1
ID : 2
Format : UTF-8
Codec ID : S_TEXT/UTF8
Codec ID/Info : UTF-8 Plain Text
Duration : 29 min 45 s
Bit rate : 54 b/s
Frame rate : 0.240 FPS
Count of elements : 429
Stream size : 11.8 KiB (0%)
Title : Chinese Simplified
Language : Chinese
Default : Yes
Forced : No

Text #2
ID : 3
Format : UTF-8
Codec ID : S_TEXT/UTF8
Codec ID/Info : UTF-8 Plain Text
Duration : 29 min 45 s
Bit rate : 54 b/s
Frame rate : 0.240 FPS
Count of elements : 429
Stream size : 11.8 KiB (0%)
Title : Chinese Traditional
Language : Chinese
Default : No
Forced : No


点击图片可查看大图

软字幕无法在截图上展现,HDR版本/杜比视界版本截图会出现颜色异常,请使用支持的设备播放!



1 个附件 售价 大小 下载 时间

Kinou.Nani.Tabeta.S02.2023.1080p.KKTV.WEB-DL.x264.AAC-DDHDTV[1LOU.ME].torrent 0 金币 4.44K 1001 次 2月前

#1楼
发帖时间:2023-12-02 13:23:34   |   回复数:0
游客组