BILL36
超凡入圣№

[2023] [日本] [喜剧] [HDTV/HDrip] 经验丰富的你和经验为零的我交往的故事[第09集][简繁英字幕].2023.1080p.B-Global.WEB-DL.x264.AAC-DDHDTV 0.25G

-->

完整标题:经验丰富的你和经验为零的我交往的故事[第09集][简繁英字幕].2023.1080p.B-Global.WEB-DL.x264.AAC-DDHDTV 0.25GB



◎标  题 经验丰富的你和经验为零的我交往的故事
◎译  名 キミゼロ / 位于恋爱光谱极端的我们
◎片  名 経験済みなキミと、 経験ゼロなオレが、 お付き合いする話。
◎年  代 2023
◎产  地 日本
◎类  别 喜剧 / 爱情 / 动画
◎语  言 日语
◎IMDb链接 https://www.imdb.com/title//
◎豆瓣评分 5.0/10 (317人评价)
◎豆瓣链接 https://movie.douban.com/subject/36093302/
◎导  演 大庭秀昭 Ooba Hideaki
◎编  剧 福田裕子 Hiroko Fukuda
◎演  员 花江夏树 Natsuki Hanae
      大西沙织 Saori Oonishi
      古贺葵 Aoi Koga
      福原绫香 Ayaka Fukuhara
      楠木灯 Tomori Kusunoki
      落合福嗣 Fukushi Ochiai
      阪口大助 Daisuke Sakaguchi
      前野智昭 Tomoaki Maeno
      内田真礼 Maaya Uchida

◎简  介
    加岛龙斗和好友游玩惩罚游戏输掉后,在认为自己不会成功的想法下,向倾慕的对象白河月爱表白。但月爱意外地接受了表白,且当天就将龙斗带到自己的房间,准备进行性行为,在龙斗的劝说下,月爱决定等到打从心底喜欢龙斗时再做。

部分资源为软字幕,移动端推荐播放器:MxPlayer,nPlayer,infuse ,其他播放器请自行尝试。

部分资源为软字幕,电脑端推荐播放器:PotPlayer,完美解码,KMPLAYER,其他播放器请自行尝试。

##### MediaInfo ######
General
Unique ID : 215006051855179099094003684468386197648 (0xA1C0A8CB1C8F145A0ADA1466DEF07090)
Complete name : Keikenzumi.na.Kimi.to.Keiken.Zero.na.Ore.ga.Otsukiai.suru.Hanashi.S01E09.2023.1080p.WEB-DL.x264.AAC-DDHDTV.mkv
Duration : 23 min 41 s
Overall bit rate : 1 527 kb/s

Video
ID : 1
Format : AVC
Format/Info : Advanced Video Codec
Format profile : High@L5
Format settings : CABAC / 8 Ref Frames
Format settings, CABAC : Yes
Format settings, Reference frames : 8 frames
Codec ID : V_MPEG4/ISO/AVC
Duration : 23 min 39 s
Bit rate : 1 341 kb/s
Width : 1 920 pixels
Height : 1 080 pixels
Display aspect ratio : 16:9
Frame rate mode : Constant
Frame rate : 23.976 (24000/1001) FPS
Original frame rate : 23.976 (23976/1000) FPS
Color space : YUV
Chroma subsampling : 4:2:0
Bit depth : 8 bits
Scan type : Progressive
Bits/(Pixel*Frame) : 0.027
Stream size : 227 MiB (88%)
Title : Japanese
Language : Japanese
Default : Yes
Forced : No
Color range : Limited
Color primaries : BT.709
Transfer characteristics : BT.709
Matrix coefficients : BT.709

Audio
ID : 2
Format : AAC LC
Format/Info : Advanced Audio Codec Low Complexity
Codec ID : A_AAC-2
Duration : 23 min 40 s
Bit rate : 185 kb/s
Channel(s) : 2 channels
Channel layout : L R
Sampling rate : 48.0 kHz
Frame rate : 46.875 FPS (1024 SPF)
Compression mode : Lossy
Stream size : 31.3 MiB (12%)
Title : Japanese
Language : Japanese
Default : Yes
Forced : No

Text #1
ID : 3
Format : UTF-8
Codec ID : S_TEXT/UTF8
Codec ID/Info : UTF-8 Plain Text
Duration : 23 min 39 s
Bit rate : 67 b/s
Frame rate : 0.313 FPS
Count of elements : 444
Stream size : 11.7 KiB (0%)
Title : Chinese Simplified
Language : Chinese
Default : Yes
Forced : No

Text #2
ID : 4
Format : UTF-8
Codec ID : S_TEXT/UTF8
Codec ID/Info : UTF-8 Plain Text
Duration : 23 min 39 s
Bit rate : 67 b/s
Frame rate : 0.313 FPS
Count of elements : 444
Stream size : 11.7 KiB (0%)
Title : Chinese Traditional
Language : Chinese
Default : No
Forced : No

Text #3
ID : 5
Format : UTF-8
Codec ID : S_TEXT/UTF8
Codec ID/Info : UTF-8 Plain Text
Duration : 23 min 39 s
Bit rate : 66 b/s
Frame rate : 0.250 FPS
Count of elements : 355
Stream size : 11.5 KiB (0%)
Title : English
Language : English
Default : No
Forced : No

Text #4
ID : 6
Format : UTF-8
Codec ID : S_TEXT/UTF8
Codec ID/Info : UTF-8 Plain Text
Duration : 23 min 39 s
Bit rate : 172 b/s
Frame rate : 0.274 FPS
Count of elements : 389
Stream size : 29.9 KiB (0%)
Title : ???????
Language : Thai
Default : No
Forced : No

Text #5
ID : 7
Format : ASS
Codec ID : S_TEXT/ASS
Codec ID/Info : Advanced Sub Station Alpha
Duration : 23 min 39 s
Bit rate : 128 b/s
Frame rate : 0.237 FPS
Count of elements : 336
Compression mode : Lossless
Stream size : 22.3 KiB (0%)
Title : Ti?ng Vi?t
Language : Vietnamese
Default : No
Forced : No

Text #6
ID : 8
Format : UTF-8
Codec ID : S_TEXT/UTF8
Codec ID/Info : UTF-8 Plain Text
Duration : 23 min 40 s
Bit rate : 63 b/s
Frame rate : 0.242 FPS
Count of elements : 344
Stream size : 11.0 KiB (0%)
Title : Bahasa Indonesia
Language : Indonesian
Default : No
Forced : No


点击图片可查看大图

软字幕无法在截图上展现,HDR版本/杜比视界版本截图会出现颜色异常,请使用支持的设备播放!



1 个附件 售价 大小 下载 时间

2023.1080p.B-Global.WEB-DL.x264.AAC-DDHDTV[1LOU.ME].torrent 0 金币 3.44K 91 次 2月前

#1楼
发帖时间:2023-12-02 13:22:36   |   回复数:0
游客组