BILL36
超凡入圣№

[2023] [日本] [动画] [HDTV/HDrip] 女友成堆 第二季[第09集][简繁英字幕].Kanojo.mo.Kanojo.S02.2023.1080p.B-Global.WEB-DL.x264.AAC-D

-->

完整标题:女友成堆 第二季[第09集][简繁英字幕].Kanojo.mo.Kanojo.S02.2023.1080p.B-Global.WEB-DL.x264.AAC-DDHDTV 0.28GB



◎标  题 女友成堆 第二季
◎译  名 女友成双 第二季
◎片  名 カノジョも彼女 Season 2
◎年  代 2023
◎产  地 日本
◎类  别 动画
◎语  言 日语
◎IMDb链接 https://www.imdb.com/title//
◎豆瓣评分 7.4/10 (93人评价)
◎豆瓣链接 https://movie.douban.com/subject/36097590/
◎导  演 铃木孝聪 Suzuki Takaaki
      桑原智 Kuwahara Satoshi
◎编  剧 大知庆一郎 Oochi Keiichirou
◎演  员 榎木淳弥 Junya Enoki
      佐仓绫音 Ayane Sakura
      和气杏未 Azumi Waki
      竹达彩奈 Ayana Taketatsu
      高桥李依 Rie Takahashi
      关智一 Tomokazu Seki
      小清水亚美 Ami Koshimizu
      古贺葵 Aoi Koga

◎简  介
    电视动画《女友成堆》宣布制作第二季,详情待后续发表!

部分资源为软字幕,移动端推荐播放器:MxPlayer,nPlayer,infuse ,其他播放器请自行尝试。

部分资源为软字幕,电脑端推荐播放器:PotPlayer,完美解码,KMPLAYER,其他播放器请自行尝试。

##### MediaInfo ######
General
Unique ID : 295028447019347192920260079163967946439 (0xDDF4697C8190153C9FADDDD3E02A3EC7)
Complete name : Kanojo.mo.Kanojo.S02E09.2023.1080p.WEB-DL.x264.AAC-DDHDTV.mkv
Duration : 24 min 12 s
Overall bit rate : 1 665 kb/s

Video
ID : 1
Format : AVC
Format/Info : Advanced Video Codec
Format profile : High@L5
Format settings : CABAC / 8 Ref Frames
Format settings, CABAC : Yes
Format settings, Reference frames : 8 frames
Codec ID : V_MPEG4/ISO/AVC
Duration : 24 min 12 s
Bit rate : 1 467 kb/s
Width : 1 920 pixels
Height : 1 080 pixels
Display aspect ratio : 16:9
Frame rate mode : Constant
Frame rate : 23.976 (24000/1001) FPS
Original frame rate : 23.976 (23976/1000) FPS
Color space : YUV
Chroma subsampling : 4:2:0
Bit depth : 8 bits
Scan type : Progressive
Bits/(Pixel*Frame) : 0.030
Stream size : 254 MiB (88%)
Title : Japanese
Language : Japanese
Default : Yes
Forced : No
Color range : Limited
Color primaries : BT.709
Transfer characteristics : BT.709
Matrix coefficients : BT.709

Audio
ID : 2
Format : AAC LC
Format/Info : Advanced Audio Codec Low Complexity
Codec ID : A_AAC-2
Duration : 24 min 12 s
Bit rate : 192 kb/s
Channel(s) : 2 channels
Channel layout : L R
Sampling rate : 48.0 kHz
Frame rate : 46.875 FPS (1024 SPF)
Compression mode : Lossy
Stream size : 33.8 MiB (12%)
Title : Japanese
Language : Japanese
Default : Yes
Forced : No

Text #1
ID : 3
Format : UTF-8
Codec ID : S_TEXT/UTF8
Codec ID/Info : UTF-8 Plain Text
Duration : 24 min 10 s
Bit rate : 60 b/s
Frame rate : 0.298 FPS
Count of elements : 432
Stream size : 10.7 KiB (0%)
Title : Chinese Simplified
Language : Chinese
Default : Yes
Forced : No

Text #2
ID : 4
Format : UTF-8
Codec ID : S_TEXT/UTF8
Codec ID/Info : UTF-8 Plain Text
Duration : 24 min 10 s
Bit rate : 60 b/s
Frame rate : 0.298 FPS
Count of elements : 432
Stream size : 10.7 KiB (0%)
Title : Chinese Traditional
Language : Chinese
Default : No
Forced : No

Text #3
ID : 5
Format : UTF-8
Codec ID : S_TEXT/UTF8
Codec ID/Info : UTF-8 Plain Text
Duration : 24 min 10 s
Bit rate : 50 b/s
Frame rate : 0.232 FPS
Count of elements : 336
Stream size : 8.95 KiB (0%)
Title : English
Language : English
Default : No
Forced : No

Text #4
ID : 6
Format : UTF-8
Codec ID : S_TEXT/UTF8
Codec ID/Info : UTF-8 Plain Text
Duration : 24 min 11 s
Bit rate : 147 b/s
Frame rate : 0.253 FPS
Count of elements : 367
Stream size : 26.2 KiB (0%)
Title : ???????
Language : Thai
Default : No
Forced : No

Text #5
ID : 7
Format : UTF-8
Codec ID : S_TEXT/UTF8
Codec ID/Info : UTF-8 Plain Text
Duration : 24 min 10 s
Bit rate : 65 b/s
Frame rate : 0.281 FPS
Count of elements : 408
Stream size : 11.5 KiB (0%)
Title : Bahasa Indonesia
Language : Indonesian
Default : No
Forced : No


点击图片可查看大图

软字幕无法在截图上展现,HDR版本/杜比视界版本截图会出现颜色异常,请使用支持的设备播放!



1 个附件 售价 大小 下载 时间

Kanojo.mo.Kanojo.S02.2023.1080p.B-Global.WEB-DL.x264.AAC-DDHDTV[1LOU.ME].torrent 0 金币 3.46K 84 次 2月前

#1楼
发帖时间:2023-12-02 13:20:42   |   回复数:0
游客组