BILL36
超凡入圣№

[2023] [日本] [动画] [HDTV/HDrip] 催眠麦克风 Rhyme Anima +[第09集][中文字幕].Hypnosis.Mic.S02.2023.1080p.Baha.WEB-DL.x264.AAC

-->

完整标题:催眠麦克风 Rhyme Anima +[第09集][中文字幕].Hypnosis.Mic.S02.2023.1080p.Baha.WEB-DL.x264.AAC-DDHDTV 0.63GB



◎标  题 催眠麦克风 Rhyme Anima +
◎译  名 催眠麦克风 第二季
◎片  名 ヒプノシスマイク-Division Rap Battle-Rhyme Anima +
◎年  代 2023
◎产  地 日本
◎类  别 动画
◎语  言 日语
◎IMDb链接 https://www.imdb.com/title//
◎豆瓣链接 https://movie.douban.com/subject/36330200/
◎导  演 小野胜巳 Ono Katsumi
◎编  剧 吉田伸 Shin Yoshida
◎演  员 木村昴 Subaru Kimura
      石谷春贵 Haruki Ishiya
      天崎滉平 Kôhei Amasaki
      浅沼晋太郎 Shintaro Asanuma
      驹田航 Komada Wataru
      神尾晋一郎 Kamio Shin`ichirou
      白井悠介 Yusuke Shirai
      齐藤壮马 Soma Saito
      野津山幸宏 Nozuyama Yukihiro
      速水奖 Shô Hayami
      木岛隆一 Ryuuichi Kijima
      叶山翔太 Shôta Hayama
      榊原优希 Sakakihara Yuki
      竹内荣治 Eiji Takeuchi
      岩崎谅太 Ryōta Iwasaki
      河西健吾 Kengo Kawanishi
      黑田崇矢 Takaya Kuroda

◎简  介
    TVアニメ ヒプノシスマイク 第2期   『ヒプノシスマイク-Division Rap Battle-』Rhyme Anima + 制作決定‼️   続報は、ヒプマイ9thライブ で発表

部分资源为软字幕,移动端推荐播放器:MxPlayer,nPlayer,infuse ,其他播放器请自行尝试。

部分资源为软字幕,电脑端推荐播放器:PotPlayer,完美解码,KMPLAYER,其他播放器请自行尝试。

##### MediaInfo ######
General
Complete name : Hypnosis.Mic.S02E09.2023.1080p.Baha.WEB-DL.x264.AAC-DDHDTV.mp4
Duration : 23 min 45 s
Overall bit rate : 3 767 kb/s

Video
ID : 1
Format : AVC
Format/Info : Advanced Video Codec
Format profile : High@L5
Format settings : CABAC / 4 Ref Frames
Format settings, CABAC : Yes
Format settings, Reference frames : 4 frames
Codec ID : avc1
Codec ID/Info : Advanced Video Coding
Duration : 23 min 45 s
Source duration : 23 min 45 s
Bit rate : 3 443 kb/s
Width : 1 920 pixels
Height : 1 080 pixels
Display aspect ratio : 16:9
Frame rate mode : Variable
Frame rate : 23.976 (24000/1001) FPS
Minimum frame rate : 23.974 FPS
Maximum frame rate : 23.981 FPS
Color space : YUV
Chroma subsampling : 4:2:0
Bit depth : 8 bits
Scan type : Progressive
Bits/(Pixel*Frame) : 0.069
Stream size : 585 MiB (91%)
Source stream size : 585 MiB (91%)
Writing library : x264 core 161 r3018 db0d417
Encoding settings : cabac=1 / ref=4 / deblock=1:-1:-1 / analyse=0x3:0x113 / me=umh / subme=9 / psy=1 / psy_rd=1.00:0.00 / mixed_ref=1 / me_range=16 / chroma_me=1 / trellis=2 / 8x8dct=1 / cqm=0 / deadzone=21,11 / fast_pskip=1 / chroma_qp_offset=-2 / threads=24 / lookahead_threads=2 / sliced_threads=0 / nr=0 / decimate=1 / interlaced=0 / bluray_compat=0 / constrained_intra=0 / bframes=8 / b_pyramid=2 / b_adapt=1 / b_bias=0 / direct=3 / weightb=1 / open_gop=0 / weightp=2 / keyint=250 / keyint_min=23 / scenecut=40 / intra_refresh=0 / rc_lookahead=50 / rc=crf / mbtree=1 / crf=21.0 / qcomp=0.60 / qpmin=0 / qpmax=69 / qpstep=4 / vbv_maxrate=12000 / vbv_bufsize=80000 / crf_max=0.0 / nal_hrd=none / filler=0 / ip_ratio=1.40 / aq=3:1.00
mdhd_Duration : 1425090
Codec configuration box : avcC

Audio
ID : 2
Format : AAC LC
Format/Info : Advanced Audio Codec Low Complexity
Codec ID : mp4a-40-2
Duration : 23 min 45 s
Bit rate mode : Constant
Bit rate : 318 kb/s
Channel(s) : 2 channels
Channel layout : L R
Sampling rate : 48.0 kHz
Frame rate : 46.875 FPS (1024 SPF)
Compression mode : Lossy
Stream size : 54.0 MiB (8%)
Language : Japanese
Default : Yes
Alternate group : 1


点击图片可查看大图

软字幕无法在截图上展现,HDR版本/杜比视界版本截图会出现颜色异常,请使用支持的设备播放!



1 个附件 售价 大小 下载 时间

Hypnosis.Mic.S02.2023.1080p.Baha.WEB-DL.x264.AAC-DDHDTV[1LOU.ME].torrent 0 金币 4.32K 98 次 2月前

#1楼
发帖时间:2023-12-02 13:20:14   |   回复数:0
游客组