BILL36
超凡入圣№

[2023] [日本] [剧情] [WEB-1080P] 鬣狗式生存[第07集][中文字幕].Hyena.S01.1080p.NF.WEB-DL.DDP.2.0.H.264-BlackTV 2.05GB

-->

完整标题:鬣狗式生存[第07集][中文字幕].Hyena.S01.1080p.NF.WEB-DL.DDP.2.0.H.264-BlackTV 2.05GB



◎标  题 鬣狗式生存
◎片  名 ハイエナ
◎年  代 2023
◎产  地 日本
◎类  别 剧情
◎语  言 日语
◎IMDb链接 https://www.imdb.com/title//
◎豆瓣评分 6.1/10 (90人评价)
◎豆瓣链接 https://movie.douban.com/subject/36553167/
◎导  演 土方政人 Masato Hijikata
      小林义则 Yoshinori Kobayashi
◎编  剧 佐藤嗣麻子 Shimako Sato
◎演  员 筱原凉子 Ryoko Shinohara
      山崎育三郎 Ikusaburou Yamazaki
      泷本美织 Miori Takimoto
      中尾明庆 Akinobu Nakao
      久保田悠来 Yuki Kubota
      槙田雄司 Makita Sports
      大友花恋 Otomo Karen
      高桥克典 Katsunori Takahashi
      八木勇征 Yagi Yusei

◎简  介
    翻拍自同名韩剧,讲述以法律为生存武器的鬣狗律师们的关于人类的故事,将描写围绕着男女主人公的各种人物群像而展开的浩荡的生存游戏。

部分资源为软字幕,移动端推荐播放器:MxPlayer,nPlayer,infuse ,其他播放器请自行尝试。

部分资源为软字幕,电脑端推荐播放器:PotPlayer,完美解码,KMPLAYER,其他播放器请自行尝试。

##### MediaInfo ######
General
Unique ID : 48391175340750948622347000379718236977 (0x2467CD2624EB56601BD967B86D7FFB31)
Complete name : Hyena.S01E07.Episode.7.1080p.NF.WEB-DL.DDP.2.0.H.264-BlackTV.mkv
Duration : 44 min 20 s
Overall bit rate mode : Variable
Overall bit rate : 6 627 kb/s

Video
ID : 1
Format : AVC
Format/Info : Advanced Video Codec
Format profile : High@L4
Format settings : CABAC / 4 Ref Frames
Format settings, CABAC : Yes
Format settings, Reference frames : 4 frames
Codec ID : V_MPEG4/ISO/AVC
Duration : 44 min 20 s
Bit rate mode : Variable
Bit rate : 6 500 kb/s
Maximum bit rate : 20.0 Mb/s
Width : 1 920 pixels
Height : 1 080 pixels
Display aspect ratio : 16:9
Frame rate mode : Constant
Frame rate : 29.970 (30000/1001) FPS
Color space : YUV
Chroma subsampling : 4:2:0
Bit depth : 8 bits
Scan type : Progressive
Bits/(Pixel*Frame) : 0.105
Stream size : 2.01 GiB (98%)
Writing library : x264 core 148 r2727 7d026e8
Encoding settings : cabac=1 / ref=4 / deblock=1:0:0 / analyse=0x3:0x111 / me=umh / subme=10 / psy=1 / psy_rd=1.00:0.00 / mixed_ref=1 / me_range=120 / chroma_me=1 / trellis=2 / 8x8dct=1 / cqm=0 / deadzone=21,11 / fast_pskip=1 / chroma_qp_offset=-2 / threads=6 / lookahead_threads=1 / sliced_threads=0 / nr=0 / decimate=1 / interlaced=0 / bluray_compat=0 / stitchable=1 / constrained_intra=0 / bframes=16 / b_pyramid=2 / b_adapt=2 / b_bias=0 / direct=3 / weightb=1 / open_gop=0 / weightp=2 / keyint=300 / keyint_min=151 / scenecut=0 / intra_refresh=0 / rc_lookahead=250 / rc=2pass / mbtree=1 / bitrate=6500 / ratetol=1.0 / qcomp=0.50 / qpmin=6 / qpmax=51 / qpstep=4 / cplxblur=10.0 / qblur=0.5 / vbv_maxrate=20000 / vbv_bufsize=25000 / nal_hrd=vbr / filler=0 / ip_ratio=1.40 / aq=1:0.80
Language : Japanese
Default : Yes
Forced : No

Audio
ID : 2
Format : E-AC-3
Format/Info : Enhanced AC-3
Commercial name : Dolby Digital Plus
Codec ID : A_EAC3
Duration : 44 min 20 s
Bit rate mode : Constant
Bit rate : 128 kb/s
Channel(s) : 2 channels
Channel layout : L R
Sampling rate : 48.0 kHz
Frame rate : 31.250 FPS (1536 SPF)
Compression mode : Lossy
Stream size : 40.6 MiB (2%)
Language : Japanese
Service kind : Complete Main
Default : Yes
Forced : No

Text #1
ID : 3
Format : UTF-8
Codec ID : S_TEXT/UTF8
Codec ID/Info : UTF-8 Plain Text
Duration : 44 min 12 s
Bit rate : 78 b/s
Frame rate : 0.255 FPS
Count of elements : 676
Stream size : 25.4 KiB (0%)
Title : SDH
Language : Japanese
Default : No
Forced : No

Text #2
ID : 4
Format : UTF-8
Codec ID : S_TEXT/UTF8
Codec ID/Info : UTF-8 Plain Text
Duration : 44 min 14 s
Bit rate : 54 b/s
Frame rate : 0.245 FPS
Count of elements : 651
Stream size : 17.7 KiB (0%)
Title : Traditional
Language : Chinese
Default : No
Forced : No

Text #3
ID : 5
Format : UTF-8
Codec ID : S_TEXT/UTF8
Codec ID/Info : UTF-8 Plain Text
Duration : 44 min 14 s
Bit rate : 64 b/s
Frame rate : 0.249 FPS
Count of elements : 661
Stream size : 21.0 KiB (0%)
Language : Korean
Default : No
Forced : No

Menu
00:00:00.000 : en:Recap
00:01:43.369 : en:Chapter 01
00:44:05.000 : en:End Credits


点击图片可查看大图

软字幕无法在截图上展现,HDR版本/杜比视界版本截图会出现颜色异常,请使用支持的设备播放!



1 个附件 售价 大小 下载 时间

Hyena.S01.1080p.NF.WEB-DL.DDP.2.0.H.264-BlackTV[1LOU.ME].torrent 0 金币 7.85K 462 次 2月前

#1楼
发帖时间:2023-12-02 13:19:47   |   回复数:0
游客组