BILL36
超凡入圣№

[2023] [日本] [动画] [HDTV/HDrip] 破灭之国[第09集][简繁英字幕].Hametsu.no.Oukoku.S01.2023.1080p.CR.WEB-DL.x264.AAC-DDHDTV 1.3

-->

完整标题:破灭之国[第09集][简繁英字幕].Hametsu.no.Oukoku.S01.2023.1080p.CR.WEB-DL.x264.AAC-DDHDTV 1.37GB



◎标  题 破灭之国
◎片  名 はめつのおうこく
◎年  代 2023
◎产  地 日本
◎类  别 动画
◎语  言 日语
◎IMDb链接 https://www.imdb.com/title//
◎豆瓣评分 5.5/10 (212人评价)
◎豆瓣链接 https://movie.douban.com/subject/36209128/
◎导  演 元永庆太郎 Keitarou Motonaga
◎编  剧 鸿野贵光 Kouno Takamitsu
◎演  员 石川界人 Kaito Ishikawa
      和气杏未 Azumi Waki

◎简  介
    自古以来被神送往人间并一直在帮助人类的魔女一族,因为超工业革命的发展变得对人类来说已不再是必要的存在,而是一种威胁。人类开始狩猎魔女以消除魔法的不科学力量。阿多尼斯是一个年轻的魔女学徒,当他眼睁睁的看着倾慕的魔女导师克洛伊被猎杀,痛恨这一切的他决心用所学到的魔法向人类宣誓报仇。《破灭之国》是作者yoruhashi创作的漫画作品。近日官宣动画化!

部分资源为软字幕,移动端推荐播放器:MxPlayer,nPlayer,infuse ,其他播放器请自行尝试。

部分资源为软字幕,电脑端推荐播放器:PotPlayer,完美解码,KMPLAYER,其他播放器请自行尝试。

##### MediaInfo ######
General
Unique ID : 147988654561936571626618643101414778768 (0x6F55940000B11B54D250FFCAEFFAE790)
Complete name : Hametsu.no.Oukoku.S01E09.2023.1080p.CR.WEB-DL.x264.AAC-DDHDTV.mkv
Duration : 24 min 11 s
Overall bit rate : 8 108 kb/s

Video
ID : 1
Format : AVC
Format/Info : Advanced Video Codec
Format profile : High@L4
Format settings : CABAC / 4 Ref Frames
Format settings, CABAC : Yes
Format settings, Reference frames : 4 frames
Codec ID : V_MPEG4/ISO/AVC
Duration : 24 min 9 s
Bit rate : 8 000 kb/s
Width : 1 920 pixels
Height : 1 080 pixels
Display aspect ratio : 16:9
Frame rate mode : Constant
Frame rate : 23.976 (24000/1001) FPS
Color space : YUV
Chroma subsampling : 4:2:0
Bit depth : 8 bits
Scan type : Progressive
Bits/(Pixel*Frame) : 0.161
Stream size : 1.35 GiB (98%)
Title : Japanese
Writing library : x264 core 164
Encoding settings : cabac=1 / ref=4 / deblock=1:1:1 / analyse=0x3:0x113 / me=hex / subme=8 / psy=1 / psy_rd=0.40:0.00 / mixed_ref=1 / me_range=16 / chroma_me=1 / trellis=2 / 8x8dct=1 / cqm=0 / deadzone=21,11 / fast_pskip=1 / chroma_qp_offset=-2 / threads=12 / lookahead_threads=2 / sliced_threads=0 / nr=0 / decimate=1 / interlaced=0 / bluray_compat=0 / constrained_intra=0 / bframes=0 / weightp=2 / keyint=96 / keyint_min=48 / scenecut=40 / intra_refresh=0 / rc_lookahead=48 / rc=2pass / mbtree=1 / bitrate=8000 / ratetol=1.0 / qcomp=0.60 / qpmin=0 / qpmax=69 / qpstep=4 / cplxblur=20.0 / qblur=0.5 / vbv_maxrate=12000 / vbv_bufsize=18000 / nal_hrd=none / filler=0 / ip_ratio=1.40 / aq=1:0.60
Language : Japanese
Default : Yes
Forced : No
Color range : Limited
Color primaries : BT.709
Transfer characteristics : BT.709
Matrix coefficients : BT.709

Audio
ID : 2
Format : AAC LC
Format/Info : Advanced Audio Codec Low Complexity
Codec ID : A_AAC-2
Duration : 24 min 9 s
Bit rate : 128 kb/s
Channel(s) : 2 channels
Channel layout : L R
Sampling rate : 44.1 kHz
Frame rate : 43.066 FPS (1024 SPF)
Compression mode : Lossy
Stream size : 22.1 MiB (2%)
Title : Japanese
Language : Japanese
Default : Yes
Forced : No

Text #1
ID : 3
Format : UTF-8
Codec ID : S_TEXT/UTF8
Codec ID/Info : UTF-8 Plain Text
Duration : 22 min 31 s
Bit rate : 45 b/s
Frame rate : 0.209 FPS
Count of elements : 282
Stream size : 7.43 KiB (0%)
Title : Chinese Simplified
Language : Chinese
Default : Yes
Forced : No

Text #2
ID : 4
Format : UTF-8
Codec ID : S_TEXT/UTF8
Codec ID/Info : UTF-8 Plain Text
Duration : 22 min 31 s
Bit rate : 45 b/s
Frame rate : 0.209 FPS
Count of elements : 282
Stream size : 7.44 KiB (0%)
Title : Chinese Traditional
Language : Chinese
Default : No
Forced : No

Text #3
ID : 5
Format : ASS
Codec ID : S_TEXT/ASS
Codec ID/Info : Advanced Sub Station Alpha
Duration : 22 min 31 s
Bit rate : 121 b/s
Frame rate : 0.178 FPS
Count of elements : 240
Compression mode : Lossless
Stream size : 20.1 KiB (0%)
Language : Arabic
Default : No
Forced : No

Text #4
ID : 6
Format : ASS
Codec ID : S_TEXT/ASS
Codec ID/Info : Advanced Sub Station Alpha
Duration : 22 min 51 s
Bit rate : 139 b/s
Frame rate : 0.201 FPS
Count of elements : 276
Compression mode : Lossless
Stream size : 23.4 KiB (0%)
Language : German
Default : No
Forced : No

Text #5
ID : 7
Format : ASS
Codec ID : S_TEXT/ASS
Codec ID/Info : Advanced Sub Station Alpha
Duration : 22 min 31 s
Bit rate : 99 b/s
Frame rate : 0.178 FPS
Count of elements : 240
Compression mode : Lossless
Stream size : 16.4 KiB (0%)
Language : English
Default : No
Forced : No

Text #6
ID : 8
Format : ASS
Codec ID : S_TEXT/ASS
Codec ID/Info : Advanced Sub Station Alpha
Duration : 24 min 2 s
Bit rate : 99 b/s
Frame rate : 0.166 FPS
Count of elements : 239
Compression mode : Lossless
Stream size : 17.5 KiB (0%)
Language : Spanish
Default : No
Forced : No

Text #7
ID : 9
Format : ASS
Codec ID : S_TEXT/ASS
Codec ID/Info : Advanced Sub Station Alpha
Duration : 24 min 2 s
Bit rate : 99 b/s
Frame rate : 0.166 FPS
Count of elements : 240
Compression mode : Lossless
Stream size : 17.5 KiB (0%)
Language : Spanish
Default : No
Forced : No

Text #8
ID : 10
Format : ASS
Codec ID : S_TEXT/ASS
Codec ID/Info : Advanced Sub Station Alpha
Duration : 24 min 2 s
Bit rate : 100 b/s
Frame rate : 0.182 FPS
Count of elements : 263
Compression mode : Lossless
Stream size : 17.6 KiB (0%)
Language : French
Default : No
Forced : No

Text #9
ID : 11
Format : ASS
Codec ID : S_TEXT/ASS
Codec ID/Info : Advanced Sub Station Alpha
Duration : 22 min 31 s
Bit rate : 110 b/s
Frame rate : 0.181 FPS
Count of elements : 245
Compression mode : Lossless
Stream size : 18.2 KiB (0%)
Language : Italian
Default : No
Forced : No

Text #10
ID : 12
Format : ASS
Codec ID : S_TEXT/ASS
Codec ID/Info : Advanced Sub Station Alpha
Duration : 22 min 31 s
Bit rate : 104 b/s
Frame rate : 0.178 FPS
Count of elements : 241
Compression mode : Lossless
Stream size : 17.3 KiB (0%)
Language : Portuguese
Default : No
Forced : No

Text #11
ID : 13
Format : ASS
Codec ID : S_TEXT/ASS
Codec ID/Info : Advanced Sub Station Alpha
Duration : 22 min 31 s
Bit rate : 158 b/s
Frame rate : 0.222 FPS
Count of elements : 300
Compression mode : Lossless
Stream size : 26.2 KiB (0%)
Language : Russian
Default : No
Forced : No


点击图片可查看大图

软字幕无法在截图上展现,HDR版本/杜比视界版本截图会出现颜色异常,请使用支持的设备播放!



1 个附件 售价 大小 下载 时间

Hametsu.no.Oukoku.S01.2023.1080p.CR.WEB-DL.x264.AAC-DDHDTV[1LOU.ME].torrent 0 金币 6.16K 273 次 2月前

#1楼
发帖时间:2023-12-02 13:19:19   |   回复数:0
游客组