BILL36
超凡入圣№

[2023] [日本] [动画] [HDTV/HDrip] 破灭之国[第09集][中文字幕].Hametsu.no.Oukoku.S01.2023.1080p.Baha.WEB-DL.x264.AAC-DDHDTV 0.

-->

完整标题:破灭之国[第09集][中文字幕].Hametsu.no.Oukoku.S01.2023.1080p.Baha.WEB-DL.x264.AAC-DDHDTV 0.47GB



◎标  题 破灭之国
◎片  名 はめつのおうこく
◎年  代 2023
◎产  地 日本
◎类  别 动画
◎语  言 日语
◎IMDb链接 https://www.imdb.com/title//
◎豆瓣评分 5.5/10 (212人评价)
◎豆瓣链接 https://movie.douban.com/subject/36209128/
◎导  演 元永庆太郎 Keitarou Motonaga
◎编  剧 鸿野贵光 Kouno Takamitsu
◎演  员 石川界人 Kaito Ishikawa
      和气杏未 Azumi Waki

◎简  介
    自古以来被神送往人间并一直在帮助人类的魔女一族,因为超工业革命的发展变得对人类来说已不再是必要的存在,而是一种威胁。人类开始狩猎魔女以消除魔法的不科学力量。阿多尼斯是一个年轻的魔女学徒,当他眼睁睁的看着倾慕的魔女导师克洛伊被猎杀,痛恨这一切的他决心用所学到的魔法向人类宣誓报仇。《破灭之国》是作者yoruhashi创作的漫画作品。近日官宣动画化!

部分资源为软字幕,移动端推荐播放器:MxPlayer,nPlayer,infuse ,其他播放器请自行尝试。

部分资源为软字幕,电脑端推荐播放器:PotPlayer,完美解码,KMPLAYER,其他播放器请自行尝试。

##### MediaInfo ######
General
Complete name : Hametsu.no.Oukoku.S01E09.2023.1080p.Baha.WEB-DL.x264.AAC-DDHDTV.mp4
Duration : 24 min 12 s
Overall bit rate : 2 760 kb/s

Video
ID : 1
Format : AVC
Format/Info : Advanced Video Codec
Format profile : High@L5
Format settings : CABAC / 4 Ref Frames
Format settings, CABAC : Yes
Format settings, Reference frames : 4 frames
Codec ID : avc1
Codec ID/Info : Advanced Video Coding
Duration : 24 min 12 s
Source duration : 24 min 11 s
Bit rate : 2 446 kb/s
Width : 1 920 pixels
Height : 1 080 pixels
Display aspect ratio : 16:9
Frame rate mode : Variable
Frame rate : 23.976 (24000/1001) FPS
Minimum frame rate : 23.974 FPS
Maximum frame rate : 23.981 FPS
Color space : YUV
Chroma subsampling : 4:2:0
Bit depth : 8 bits
Scan type : Progressive
Bits/(Pixel*Frame) : 0.049
Stream size : 423 MiB (89%)
Source stream size : 423 MiB (89%)
Writing library : x264 core 161 r3018 db0d417
Encoding settings : cabac=1 / ref=4 / deblock=1:-1:-1 / analyse=0x3:0x113 / me=umh / subme=9 / psy=1 / psy_rd=1.00:0.00 / mixed_ref=1 / me_range=16 / chroma_me=1 / trellis=2 / 8x8dct=1 / cqm=0 / deadzone=21,11 / fast_pskip=1 / chroma_qp_offset=-2 / threads=24 / lookahead_threads=2 / sliced_threads=0 / nr=0 / decimate=1 / interlaced=0 / bluray_compat=0 / constrained_intra=0 / bframes=8 / b_pyramid=2 / b_adapt=1 / b_bias=0 / direct=3 / weightb=1 / open_gop=0 / weightp=2 / keyint=250 / keyint_min=23 / scenecut=40 / intra_refresh=0 / rc_lookahead=50 / rc=crf / mbtree=1 / crf=21.0 / qcomp=0.60 / qpmin=0 / qpmax=69 / qpstep=4 / vbv_maxrate=12000 / vbv_bufsize=80000 / crf_max=0.0 / nal_hrd=none / filler=0 / ip_ratio=1.40 / aq=3:1.00
mdhd_Duration : 1451992
Codec configuration box : avcC

Audio
ID : 2
Format : AAC LC
Format/Info : Advanced Audio Codec Low Complexity
Codec ID : mp4a-40-2
Duration : 24 min 12 s
Bit rate mode : Constant
Bit rate : 308 kb/s
Channel(s) : 2 channels
Channel layout : L R
Sampling rate : 48.0 kHz
Frame rate : 46.875 FPS (1024 SPF)
Compression mode : Lossy
Stream size : 53.4 MiB (11%)
Language : Japanese
Default : Yes
Alternate group : 1


点击图片可查看大图

软字幕无法在截图上展现,HDR版本/杜比视界版本截图会出现颜色异常,请使用支持的设备播放!



1 个附件 售价 大小 下载 时间

Hametsu.no.Oukoku.S01.2023.1080p.Baha.WEB-DL.x264.AAC-DDHDTV[1LOU.ME].torrent 0 金币 3.90K 112 次 2月前

#1楼
发帖时间:2023-12-02 13:18:51   |   回复数:0
游客组