BILL36
超凡入圣№

[2023] [日本] [剧情] [WEB-1080P] 费马的料理[第06集][中文字幕].Fermats.Cuisine.S01.1080p.NF.WEB-DL.DDP.2.0.H.264-BlackTV 2.08

-->

完整标题:费马的料理[第06集][中文字幕].Fermats.Cuisine.S01.1080p.NF.WEB-DL.DDP.2.0.H.264-BlackTV 2.08GB



◎标  题 费马的料理
◎译  名 费尔马的料理
◎片  名 フェルマーの料理
◎年  代 2023
◎产  地 日本
◎类  别 剧情
◎语  言 日语
◎IMDb链接 https://www.imdb.com/title//
◎豆瓣评分 5.8/10 (240人评价)
◎豆瓣链接 https://movie.douban.com/subject/36331242/
◎导  演 石井康晴 Yasuharu Ishii
      平野俊一 Shunichi Hirano
◎编  剧 渡边雄介 Yûsuke Watanabe
      三浦希纱 Kisa Miura
◎演  员 高桥文哉 Takahashi Fumiya
      志尊淳 Jun Shison
      小芝风花 Fuka Koshiba
      细田善彦 Yoshihiko Hosoda
      宇梶刚士 Takashi Ukaji
      高桥光臣 Mitsuomi Takahashi
      仲村亨 Tôru Nakamura
      板垣李光人 Rihito Itagaki
      白石圣 Sei Shiraishi
      宫泽艾玛 Emma Miyazawa
      及川光博 Mitsuhiro Oikawa

◎简  介
    虽然立志成为数学家,但在这条道路上受挫的高中生·北田岳,在失去了梦想并在学校食堂打工无所作为的日子里,与神秘的年轻天才厨师·朝仓海命运般地相遇,在“数学”和“料理”交汇的同时,打开了通往未知世界的大门。

部分资源为软字幕,移动端推荐播放器:MxPlayer,nPlayer,infuse ,其他播放器请自行尝试。

部分资源为软字幕,电脑端推荐播放器:PotPlayer,完美解码,KMPLAYER,其他播放器请自行尝试。

##### MediaInfo ######
General
Unique ID : 22515368293396063385477003595938178058 (0x10F04D5D03545F7FED4AC6A35F3EA40A)
Complete name : Fermats.Cuisine.S01E06.Episode.6.1080p.NF.WEB-DL.DDP.2.0.H.264-BlackTV.mkv
Duration : 44 min 58 s
Overall bit rate mode : Variable
Overall bit rate : 6 614 kb/s

Video
ID : 1
Format : AVC
Format/Info : Advanced Video Codec
Format profile : High@L4
Format settings : CABAC / 4 Ref Frames
Format settings, CABAC : Yes
Format settings, Reference frames : 4 frames
Codec ID : V_MPEG4/ISO/AVC
Duration : 44 min 58 s
Bit rate mode : Variable
Bit rate : 6 500 kb/s
Maximum bit rate : 20.0 Mb/s
Width : 1 920 pixels
Height : 1 080 pixels
Display aspect ratio : 16:9
Frame rate mode : Constant
Frame rate : 29.970 (30000/1001) FPS
Color space : YUV
Chroma subsampling : 4:2:0
Bit depth : 8 bits
Scan type : Progressive
Bits/(Pixel*Frame) : 0.105
Stream size : 2.04 GiB (98%)
Writing library : x264 core 148 r2727 7d026e8
Encoding settings : cabac=1 / ref=4 / deblock=1:0:0 / analyse=0x3:0x111 / me=umh / subme=10 / psy=1 / psy_rd=1.00:0.00 / mixed_ref=1 / me_range=120 / chroma_me=1 / trellis=2 / 8x8dct=1 / cqm=0 / deadzone=21,11 / fast_pskip=1 / chroma_qp_offset=-2 / threads=6 / lookahead_threads=1 / sliced_threads=0 / nr=0 / decimate=1 / interlaced=0 / bluray_compat=0 / stitchable=1 / constrained_intra=0 / bframes=16 / b_pyramid=2 / b_adapt=2 / b_bias=0 / direct=3 / weightb=1 / open_gop=0 / weightp=2 / keyint=300 / keyint_min=151 / scenecut=0 / intra_refresh=0 / rc_lookahead=250 / rc=2pass / mbtree=1 / bitrate=6500 / ratetol=1.0 / qcomp=0.50 / qpmin=6 / qpmax=51 / qpstep=4 / cplxblur=10.0 / qblur=0.5 / vbv_maxrate=20000 / vbv_bufsize=25000 / nal_hrd=vbr / filler=0 / ip_ratio=1.40 / aq=1:0.80
Default : Yes
Forced : No

Audio
ID : 2
Format : E-AC-3
Format/Info : Enhanced AC-3
Commercial name : Dolby Digital Plus
Codec ID : A_EAC3
Duration : 44 min 58 s
Bit rate mode : Constant
Bit rate : 128 kb/s
Channel(s) : 2 channels
Channel layout : L R
Sampling rate : 48.0 kHz
Frame rate : 31.250 FPS (1536 SPF)
Compression mode : Lossy
Stream size : 41.2 MiB (2%)
Language : Japanese
Service kind : Complete Main
Default : Yes
Forced : No

Text #1
ID : 3
Format : UTF-8
Codec ID : S_TEXT/UTF8
Codec ID/Info : UTF-8 Plain Text
Duration : 36 min 22 s
Bit rate : 0 b/s
Frame rate : 0.004 FPS
Count of elements : 9
Stream size : 161 Bytes (0%)
Title : Forced
Language : Japanese
Default : Yes
Forced : Yes

Text #2
ID : 4
Format : UTF-8
Codec ID : S_TEXT/UTF8
Codec ID/Info : UTF-8 Plain Text
Duration : 44 min 53 s
Bit rate : 55 b/s
Frame rate : 0.250 FPS
Count of elements : 674
Stream size : 18.3 KiB (0%)
Title : Simplified
Language : Chinese
Default : Yes
Forced : No

Text #3
ID : 5
Format : UTF-8
Codec ID : S_TEXT/UTF8
Codec ID/Info : UTF-8 Plain Text
Duration : 44 min 53 s
Bit rate : 55 b/s
Frame rate : 0.250 FPS
Count of elements : 674
Stream size : 18.3 KiB (0%)
Title : Traditional
Language : Chinese
Default : No
Forced : No

Menu
00:08:53.065 : en:Opening Credits
00:09:06.045 : en:Chapter 01
00:44:48.000 : en:End Credits


点击图片可查看大图

软字幕无法在截图上展现,HDR版本/杜比视界版本截图会出现颜色异常,请使用支持的设备播放!



1 个附件 售价 大小 下载 时间

Fermats.Cuisine.S01.1080p.NF.WEB-DL.DDP.2.0.H.264-BlackTV[1LOU.ME].torrent 0 金币 7.95K 189 次 2月前

#1楼
发帖时间:2023-12-02 13:17:58   |   回复数:0
游客组