BILL36
超凡入圣№

[2023] [日本] [剧情] [HDTV/HDrip] 费马的料理[第07集][中文字幕].Fermat.no.Ryori.S01.2023.1080p.KKTV.WEB-DL.x264.AAC-DDHDTV 1.0

-->

完整标题:费马的料理[第07集][中文字幕].Fermat.no.Ryori.S01.2023.1080p.KKTV.WEB-DL.x264.AAC-DDHDTV 1.01GB



◎标  题 费马的料理
◎译  名 费尔马的料理
◎片  名 フェルマーの料理
◎年  代 2023
◎产  地 日本
◎类  别 剧情
◎语  言 日语
◎IMDb链接 https://www.imdb.com/title//
◎豆瓣评分 5.8/10 (240人评价)
◎豆瓣链接 https://movie.douban.com/subject/36331242/
◎导  演 石井康晴 Yasuharu Ishii
      平野俊一 Shunichi Hirano
◎编  剧 渡边雄介 Yûsuke Watanabe
      三浦希纱 Kisa Miura
◎演  员 高桥文哉 Takahashi Fumiya
      志尊淳 Jun Shison
      小芝风花 Fuka Koshiba
      细田善彦 Yoshihiko Hosoda
      宇梶刚士 Takashi Ukaji
      高桥光臣 Mitsuomi Takahashi
      仲村亨 Tôru Nakamura
      板垣李光人 Rihito Itagaki
      白石圣 Sei Shiraishi
      宫泽艾玛 Emma Miyazawa
      及川光博 Mitsuhiro Oikawa

◎简  介
    虽然立志成为数学家,但在这条道路上受挫的高中生·北田岳,在失去了梦想并在学校食堂打工无所作为的日子里,与神秘的年轻天才厨师·朝仓海命运般地相遇,在“数学”和“料理”交汇的同时,打开了通往未知世界的大门。

部分资源为软字幕,移动端推荐播放器:MxPlayer,nPlayer,infuse ,其他播放器请自行尝试。

部分资源为软字幕,电脑端推荐播放器:PotPlayer,完美解码,KMPLAYER,其他播放器请自行尝试。

##### MediaInfo ######
General
Unique ID : 261595138631756062189051119164905399062 (0xC4CD641DCCA62C66009DDCDE5CFAA316)
Complete name : Fermat.no.Ryori.S01E07.2023.1080p.KKTV.WEB-DL.x264.AAC-DDHDTV.mkv
Duration : 45 min 22 s
Overall bit rate : 3 183 kb/s

Video
ID : 1
Format : AVC
Format/Info : Advanced Video Codec
Format profile : [email protected]
Format settings : CABAC / 5 Ref Frames
Format settings, CABAC : Yes
Format settings, Reference frames : 5 frames
Codec ID : V_MPEG4/ISO/AVC
Duration : 45 min 22 s
Bit rate : 3 000 kb/s
Width : 1 920 pixels
Height : 1 080 pixels
Display aspect ratio : 16:9
Frame rate mode : Constant
Frame rate : 29.970 (30000/1001) FPS
Color space : YUV
Chroma subsampling : 4:2:0
Bit depth : 8 bits
Scan type : Progressive
Bits/(Pixel*Frame) : 0.048
Stream size : 970 MiB (94%)
Writing library : x264 core 142
Encoding settings : cabac=1 / ref=5 / deblock=1:0:0 / analyse=0x3:0x113 / me=umh / subme=9 / psy=1 / psy_rd=1.00:0.00 / mixed_ref=1 / me_range=32 / chroma_me=1 / trellis=1 / 8x8dct=1 / cqm=0 / deadzone=21,11 / fast_pskip=1 / chroma_qp_offset=-2 / threads=12 / lookahead_threads=1 / sliced_threads=0 / nr=0 / decimate=1 / interlaced=0 / bluray_compat=0 / stitchable=1 / constrained_intra=0 / bframes=3 / b_pyramid=2 / b_adapt=1 / b_bias=0 / direct=3 / weightb=1 / open_gop=0 / weightp=2 / keyint=30 / keyint_min=3 / scenecut=0 / intra_refresh=0 / rc_lookahead=40 / rc=abr / mbtree=1 / bitrate=3000 / ratetol=1.0 / qcomp=0.60 / qpmin=0 / qpmax=69 / qpstep=4 / vbv_maxrate=4500 / vbv_bufsize=6750 / nal_hrd=none / filler=0 / ip_ratio=1.40 / aq=1:1.00
Default : Yes
Forced : No

Audio
ID : 2
Format : AAC LC
Format/Info : Advanced Audio Codec Low Complexity
Codec ID : A_AAC-2
Duration : 45 min 22 s
Bit rate : 192 kb/s
Channel(s) : 2 channels
Channel layout : L R
Sampling rate : 44.1 kHz
Frame rate : 43.066 FPS (1024 SPF)
Compression mode : Lossy
Stream size : 62.3 MiB (6%)
Title : Japanese
Language : Japanese
Default : Yes
Forced : No

Text #1
ID : 3
Format : UTF-8
Codec ID : S_TEXT/UTF8
Codec ID/Info : UTF-8 Plain Text
Duration : 45 min 22 s
Bit rate : 53 b/s
Frame rate : 0.224 FPS
Count of elements : 611
Stream size : 17.9 KiB (0%)
Title : Chinese Simplified
Language : Chinese
Default : Yes
Forced : No

Text #2
ID : 4
Format : UTF-8
Codec ID : S_TEXT/UTF8
Codec ID/Info : UTF-8 Plain Text
Duration : 45 min 18 s
Bit rate : 53 b/s
Frame rate : 0.224 FPS
Count of elements : 610
Stream size : 17.9 KiB (0%)
Title : Chinese Traditional
Language : Chinese
Default : No
Forced : No


点击图片可查看大图

软字幕无法在截图上展现,HDR版本/杜比视界版本截图会出现颜色异常,请使用支持的设备播放!



1 个附件 售价 大小 下载 时间

Fermat.no.Ryori.S01.2023.1080p.KKTV.WEB-DL.x264.AAC-DDHDTV[1LOU.ME].torrent 0 金币 5.26K 378 次 2月前

#1楼
发帖时间:2023-12-02 13:17:29   |   回复数:0
游客组