BILL36
超凡入圣№

[2015] [大陆] [动画] [WEB-1080P] 黑白无双 第一季[全12集][国语配音/中文字幕].Hei.Bai.Wu.Shuang.2015.S01.Complete.WEB-DL.1080p.AVC.A

-->

完整标题:黑白无双 第一季[全12集][国语配音/中文字幕].Hei.Bai.Wu.Shuang.2015.S01.Complete.WEB-DL.1080p.AVC.AAC-Xunlei 1.56GB



◎标  题 黑白无双 第一季
◎年  代 2015
◎产  地 中国大陆
◎类  别 动画
◎语  言 汉语普通话
◎IMDb链接 https://www.imdb.com/title//
◎豆瓣评分 7.6/10 (1910人评价)
◎豆瓣链接 https://movie.douban.com/subject/26470088/
◎编  剧 于彦舒 Yan-shu Yu
◎演  员 魏超 Chao Wei
      马正阳 Zhengyang Ma

◎简  介
    黑白无双全集动画原名《黑白无常》,改编自漫画家于彦舒的漫画作品。黑白无双全集讲述的是:在我们世界的边缘外交错着另外的一个世界,有一群由两个人组成的职业团队每天穿梭在人间与地府。他们来无影去无踪,手段精明法力高强,以收取人类的灵魂,维护人间阴阳平衡为己任,他们便是黑白无双。故事的主角小黑--见习黑无双和小白--见习白无双是超级迟到王,无论什么样的场合他们总会迟到。他们是地府里中最小的黑白无双。上任半年来,一次任务也没有完成,所以总会惹阎罗王生气。

部分资源为软字幕,移动端推荐播放器:MxPlayer,nPlayer,infuse ,其他播放器请自行尝试。

部分资源为软字幕,电脑端推荐播放器:PotPlayer,完美解码,KMPLAYER,其他播放器请自行尝试。

##### MediaInfo ######
General
Complete name : 黑白无双.Hei Bai Wu Shuang.2015.S01.EP01.WEB-DL.1080p.AVC.AAC-Xunlei.mp4
Duration : 10 min 37 s
Overall bit rate : 1 444 kb/s

Video
ID : 1
Format : AVC
Format/Info : Advanced Video Codec
Format profile : High@L5
Format settings : CABAC / 6 Ref Frames
Format settings, CABAC : Yes
Format settings, Reference frames : 6 frames
Codec ID : avc1
Codec ID/Info : Advanced Video Coding
Duration : 10 min 37 s
Bit rate : 1 310 kb/s
Width : 1 920 pixels
Height : 1 080 pixels
Display aspect ratio : 16:9
Frame rate mode : Variable
Frame rate : 24.000 FPS
Minimum frame rate : 23.810 FPS
Maximum frame rate : 24.390 FPS
Color space : YUV
Chroma subsampling : 4:2:0
Bit depth : 8 bits
Scan type : Progressive
Bits/(Pixel*Frame) : 0.026
Stream size : 99.6 MiB (91%)
Color range : Limited
Color primaries : BT.709
Transfer characteristics : BT.709
Matrix coefficients : BT.709
Codec configuration box : avcC

Audio
ID : 2
Format : AAC LC
Format/Info : Advanced Audio Codec Low Complexity
Codec ID : mp4a-40-2
Duration : 10 min 37 s
Bit rate mode : Constant
Bit rate : 125 kb/s
Channel(s) : 2 channels
Channel layout : L R
Sampling rate : 44.1 kHz
Frame rate : 43.066 FPS (1024 SPF)
Compression mode : Lossy
Stream size : 9.53 MiB (9%)
Default : Yes
Alternate group : 1




1 个附件 售价 大小 下载 时间

Hei.Bai.Wu.Shuang.2015.S01.Complete.WEB-DL.1080p.AVC.AAC-Xunlei[1LOU.ME].torrent 0 金币 7.84K 273 次 2月前

#1楼
发帖时间:2023-12-02 13:15:51   |   回复数:0
游客组