BILL36
超凡入圣№

[2023] [日本] [剧情] [WEB-1080P] 葬送的芙莉莲[第13集][中文字幕].Sousou.no.Frieren.2023.S01.1080p.LINETV.WEB-DL.AVC.AAC-Xunlei

-->

完整标题:葬送的芙莉莲[第13集][中文字幕].Sousou.no.Frieren.2023.S01.1080p.LINETV.WEB-DL.AVC.AAC-Xunlei 0.61GB



◎标  题 葬送的芙莉莲
◎译  名 Frieren: Beyond Journey's End
◎片  名 葬送のフリーレン
◎年  代 2023
◎产  地 日本
◎类  别 剧情 / 动画 / 奇幻 / 冒险
◎语  言 日语
◎IMDb评分 8.8/10 (1052人评价)
◎IMDb链接 https://www.imdb.com/title/tt22248376/
◎豆瓣评分 9.5/10 (7304人评价)
◎豆瓣链接 https://movie.douban.com/subject/36093351/
◎导  演 斋藤圭一郎 Saitou Keiichirou
◎编  剧 铃木智寻 Tomohiro Suzuki
      阿部司 Tsukasa Abe
      山田鐘人 Kanehito Yamada
◎演  员 种崎敦美 Atsumi Tanezaki
      冈本信彦 Nobuhiko Okamoto
      东地宏树 Hiroki Touchi
      上田耀司 Yoji Ueda
      大铃功起 Ōsuzu Kōki
      小林千晃 Chiaki Kobayashi
      市之濑加那 Kana Ichinose

◎简  介
    中央大陆古老城邦,人们夹道欢呼,为击败了魔王的四人组高声喝彩。这四个人分别是勇者辛美尔(冈本信彦 配音)、精灵魔导师芙莉莲(种崎敦美 配音)、僧侣海塔(东地宏树 配音)以及矮人族战士艾泽(上田耀司 配音)。在王宫盛大的晚宴上,四位好朋友相聊甚欢,并且共同回忆着征途中的快乐种种。当天上流星划过,他们相约去一个更好的地方欣赏这个五十年一遇的流星雨。在此之后,芙莉莲告别好友们,独自踏上收集魔法的旅程。时光倏忽而逝,转眼五十年过去,她如约回到主城。而与这个几乎拥有不死之身且不会衰老的精灵形成鲜明对比的是,曾经英俊帅气、孔武有力的朋友们都已经衰老。他们追昔过往,又无奈面对死亡。这让芙莉莲的心中产生了波动……   本片改编自原作山田钟人,作画阿部司的同名漫画。

部分资源为软字幕,移动端推荐播放器:MxPlayer,nPlayer,infuse ,其他播放器请自行尝试。

部分资源为软字幕,电脑端推荐播放器:PotPlayer,完美解码,KMPLAYER,其他播放器请自行尝试。

##### MediaInfo ######
General
Complete name : 葬送的芙莉莲.Sousou.no.Frieren.2023.S01E13.1080p.LINETV.WEB-DL.AVC.AAC-Xunlei.mp4
Duration : 24 min 30 s
Overall bit rate mode : Variable
Overall bit rate : 3 580 kb/s

Video
ID : 1
Format : AVC
Format/Info : Advanced Video Codec
Format profile : High@L4
Format settings : CABAC / 3 Ref Frames
Format settings, CABAC : Yes
Format settings, Reference frames : 3 frames
Codec ID : avc1
Codec ID/Info : Advanced Video Coding
Duration : 24 min 30 s
Source duration : 24 min 30 s
Bit rate mode : Variable
Bit rate : 3 446 kb/s
Maximum bit rate : 9 000 kb/s
Width : 1 920 pixels
Height : 1 080 pixels
Display aspect ratio : 16:9
Frame rate mode : Variable
Frame rate : 23.976 (24000/1001) FPS
Minimum frame rate : 23.974 FPS
Maximum frame rate : 23.981 FPS
Color space : YUV
Chroma subsampling : 4:2:0
Bit depth : 8 bits
Scan type : Progressive
Bits/(Pixel*Frame) : 0.069
Stream size : 604 MiB (96%)
Source stream size : 604 MiB (96%)
mdhd_Duration : 1470085
Codec configuration box : avcC

Audio
ID : 2
Format : AAC LC
Format/Info : Advanced Audio Codec Low Complexity
Codec ID : mp4a-40-2
Duration : 24 min 30 s
Bit rate mode : Constant
Bit rate : 125 kb/s
Channel(s) : 2 channels
Channel layout : L R
Sampling rate : 48.0 kHz
Frame rate : 46.875 FPS (1024 SPF)
Compression mode : Lossy
Stream size : 22.0 MiB (4%)
Language : Japanese
Default : Yes
Alternate group : 1




1 个附件 售价 大小 下载 时间

Sousou.no.Frieren.2023.S01.1080p.LINETV.WEB-DL.AVC.AAC-Xunlei[1LOU.ME].torrent 0 金币 4.29K 133 次 2月前

#1楼
发帖时间:2023-12-02 13:14:43   |   回复数:0
游客组