BILL36
超凡入圣№

[2023] [日本] [喜剧] [WEB-1080P] 经验丰富的你和经验为零的我交往的故事[第09集][中文字幕].2023.S01.1080p.LINETV.WEB-DL.AVC.AAC-Xunlei 0.36G

-->

完整标题:经验丰富的你和经验为零的我交往的故事[第09集][中文字幕].2023.S01.1080p.LINETV.WEB-DL.AVC.AAC-Xunlei 0.36GB



◎标  题 经验丰富的你和经验为零的我交往的故事
◎译  名 キミゼロ / 位于恋爱光谱极端的我们
◎片  名 経験済みなキミと、 経験ゼロなオレが、 お付き合いする話。
◎年  代 2023
◎产  地 日本
◎类  别 喜剧 / 爱情 / 动画
◎语  言 日语
◎IMDb链接 https://www.imdb.com/title//
◎豆瓣评分 5.0/10 (317人评价)
◎豆瓣链接 https://movie.douban.com/subject/36093302/
◎导  演 大庭秀昭 Ooba Hideaki
◎编  剧 福田裕子 Hiroko Fukuda
◎演  员 花江夏树 Natsuki Hanae
      大西沙织 Saori Oonishi
      古贺葵 Aoi Koga
      福原绫香 Ayaka Fukuhara
      楠木灯 Tomori Kusunoki
      落合福嗣 Fukushi Ochiai
      阪口大助 Daisuke Sakaguchi
      前野智昭 Tomoaki Maeno
      内田真礼 Maaya Uchida

◎简  介
    加岛龙斗和好友游玩惩罚游戏输掉后,在认为自己不会成功的想法下,向倾慕的对象白河月爱表白。但月爱意外地接受了表白,且当天就将龙斗带到自己的房间,准备进行性行为,在龙斗的劝说下,月爱决定等到打从心底喜欢龙斗时再做。

部分资源为软字幕,移动端推荐播放器:MxPlayer,nPlayer,infuse ,其他播放器请自行尝试。

部分资源为软字幕,电脑端推荐播放器:PotPlayer,完美解码,KMPLAYER,其他播放器请自行尝试。

##### MediaInfo ######
General
Complete name : 经验丰富的你和经验为零的我交往的故事.Keikenzumi.na.Kimi.to.Keiken.Zero.na.Ore.ga.Otsukiai.suru.Hanashi.2023.S01E09.1080p.LINETV.WEB-DL.AVC.AAC-Xunlei.mp4
Duration : 23 min 39 s
Overall bit rate mode : Variable
Overall bit rate : 2 178 kb/s

Video
ID : 1
Format : AVC
Format/Info : Advanced Video Codec
Format profile : High@L4
Format settings : CABAC / 3 Ref Frames
Format settings, CABAC : Yes
Format settings, Reference frames : 3 frames
Codec ID : avc1
Codec ID/Info : Advanced Video Coding
Duration : 23 min 39 s
Source duration : 23 min 39 s
Bit rate mode : Variable
Bit rate : 2 044 kb/s
Maximum bit rate : 9 000 kb/s
Width : 1 920 pixels
Height : 1 080 pixels
Display aspect ratio : 16:9
Frame rate mode : Variable
Frame rate : 23.976 (24000/1001) FPS
Minimum frame rate : 23.974 FPS
Maximum frame rate : 23.981 FPS
Color space : YUV
Chroma subsampling : 4:2:0
Bit depth : 8 bits
Scan type : Progressive
Bits/(Pixel*Frame) : 0.041
Stream size : 346 MiB (94%)
Source stream size : 346 MiB (94%)
mdhd_Duration : 1419993
Codec configuration box : avcC

Audio
ID : 2
Format : AAC LC
Format/Info : Advanced Audio Codec Low Complexity
Codec ID : mp4a-40-2
Duration : 23 min 39 s
Bit rate mode : Constant
Bit rate : 125 kb/s
Channel(s) : 2 channels
Channel layout : L R
Sampling rate : 48.0 kHz
Frame rate : 46.875 FPS (1024 SPF)
Compression mode : Lossy
Stream size : 21.2 MiB (6%)
Language : Japanese
Default : Yes
Alternate group : 1




1 个附件 售价 大小 下载 时间

2023.S01.1080p.LINETV.WEB-DL.AVC.AAC-Xunlei[1LOU.ME].torrent 0 金币 3.77K 119 次 2月前

#1楼
发帖时间:2023-12-02 13:14:13   |   回复数:0
游客组