BILL36
超凡入圣№

[2023] [日本] [动画] [WEB-1080P] 破灭之国[第09集][中文字幕].The.Kingdoms.of.Ruin.2023.S01.1080p.LINETV.WEB-DL.AVC.AAC-Xunle

-->

完整标题:破灭之国[第09集][中文字幕].The.Kingdoms.of.Ruin.2023.S01.1080p.LINETV.WEB-DL.AVC.AAC-Xunlei 0.48GB



◎标  题 破灭之国
◎片  名 はめつのおうこく
◎年  代 2023
◎产  地 日本
◎类  别 动画
◎语  言 日语
◎IMDb链接 https://www.imdb.com/title//
◎豆瓣评分 5.5/10 (212人评价)
◎豆瓣链接 https://movie.douban.com/subject/36209128/
◎导  演 元永庆太郎 Keitarou Motonaga
◎编  剧 鸿野贵光 Kouno Takamitsu
◎演  员 石川界人 Kaito Ishikawa
      和气杏未 Azumi Waki

◎简  介
    自古以来被神送往人间并一直在帮助人类的魔女一族,因为超工业革命的发展变得对人类来说已不再是必要的存在,而是一种威胁。人类开始狩猎魔女以消除魔法的不科学力量。阿多尼斯是一个年轻的魔女学徒,当他眼睁睁的看着倾慕的魔女导师克洛伊被猎杀,痛恨这一切的他决心用所学到的魔法向人类宣誓报仇。《破灭之国》是作者yoruhashi创作的漫画作品。近日官宣动画化!

部分资源为软字幕,移动端推荐播放器:MxPlayer,nPlayer,infuse ,其他播放器请自行尝试。

部分资源为软字幕,电脑端推荐播放器:PotPlayer,完美解码,KMPLAYER,其他播放器请自行尝试。

##### MediaInfo ######
General
Complete name : 破灭之国.The.Kingdoms.of.Ruin.2023.S01E09.1080p.LINETV.WEB-DL.AVC.AAC-Xunlei.mp4
Duration : 24 min 12 s
Overall bit rate mode : Variable
Overall bit rate : 2 857 kb/s

Video
ID : 1
Format : AVC
Format/Info : Advanced Video Codec
Format profile : High@L4
Format settings : CABAC / 3 Ref Frames
Format settings, CABAC : Yes
Format settings, Reference frames : 3 frames
Codec ID : avc1
Codec ID/Info : Advanced Video Coding
Duration : 24 min 12 s
Source duration : 24 min 11 s
Bit rate mode : Variable
Bit rate : 2 724 kb/s
Maximum bit rate : 9 000 kb/s
Width : 1 920 pixels
Height : 1 080 pixels
Display aspect ratio : 16:9
Frame rate mode : Variable
Frame rate : 23.976 (24000/1001) FPS
Minimum frame rate : 23.974 FPS
Maximum frame rate : 23.981 FPS
Color space : YUV
Chroma subsampling : 4:2:0
Bit depth : 8 bits
Scan type : Progressive
Bits/(Pixel*Frame) : 0.055
Stream size : 471 MiB (95%)
Source stream size : 471 MiB (95%)
mdhd_Duration : 1452025
Codec configuration box : avcC

Audio
ID : 2
Format : AAC LC
Format/Info : Advanced Audio Codec Low Complexity
Codec ID : mp4a-40-2
Duration : 24 min 12 s
Bit rate mode : Constant
Bit rate : 125 kb/s
Channel(s) : 2 channels
Channel layout : L R
Sampling rate : 48.0 kHz
Frame rate : 46.875 FPS (1024 SPF)
Compression mode : Lossy
Stream size : 21.7 MiB (4%)
Language : Japanese
Default : Yes
Alternate group : 1

Text
ID : 3
Format : Timed Text
Muxing mode : sbtl
Codec ID : tx3g
Duration : 22 min 41 s
Bit rate mode : Variable
Bit rate : 50 b/s
Frame rate : 0.349 FPS
Stream size : 8.32 KiB (0%)
Language : Chinese
Default : Yes
Forced : No
Alternate group : 3




1 个附件 售价 大小 下载 时间

The.Kingdoms.of.Ruin.2023.S01.1080p.LINETV.WEB-DL.AVC.AAC-Xunlei[1LOU.ME].torrent 0 金币 3.96K 119 次 2月前

#1楼
发帖时间:2023-12-02 13:13:19   |   回复数:0
游客组