BILL36
超凡入圣№

[2023] [大陆] [动画] [WEB-4K] 斗罗大陆2:绝世唐门[第25集][国语配音/中文字幕].2023.S02.2160p.30fps.WEB-DL.HEVC.AAC-Xunlei 1.60GB

-->

完整标题:斗罗大陆2:绝世唐门[第25集][国语配音/中文字幕].2023.S02.2160p.30fps.WEB-DL.HEVC.AAC-Xunlei 1.60GB



◎标  题 斗罗大陆2:绝世唐门
◎译  名 斗罗大陆Ⅱ绝世唐门 / 绝世唐门动画版 / 斗罗大陆2
◎年  代 2023
◎产  地 中国大陆
◎类  别 动画 / 奇幻
◎语  言 汉语普通话
◎IMDb链接 https://www.imdb.com/title//
◎豆瓣评分 8.9/10 (13902人评价)
◎豆瓣链接 https://movie.douban.com/subject/35567787/
◎导  演 沈乐平 Leping Shen
◎编  剧 沈乐平 Leping Shen
      唐家三少 Wei Zhang
◎演  员 梁达伟 Dawei Liang

◎简  介
    你我皆唐门,生在绝世中——腾讯视频《斗罗大陆绝世唐门》动画正式启动!

部分资源为软字幕,移动端推荐播放器:MxPlayer,nPlayer,infuse ,其他播放器请自行尝试。

部分资源为软字幕,电脑端推荐播放器:PotPlayer,完美解码,KMPLAYER,其他播放器请自行尝试。

##### MediaInfo ######
General
Complete name : 斗罗大陆2:绝世唐门.Soul.Land.2.The.Peerless.Tang.Clan.2023.S02E25.2160p.30fps.WEB-DL.HEVC.AAC-Xunlei.mp4
Duration : 21 min 12 s
Overall bit rate : 10.8 Mb/s

Video
ID : 1
Format : HEVC
Format/Info : High Efficiency Video Coding
Format profile : Main@L5@Main
Codec ID : hev1
Codec ID/Info : High Efficiency Video Coding
Duration : 21 min 12 s
Source duration : 21 min 12 s
Bit rate : 10.7 Mb/s
Width : 3 840 pixels
Height : 2 160 pixels
Display aspect ratio : 16:9
Frame rate mode : Variable
Frame rate : 30.000 FPS
Minimum frame rate : 29.990 FPS
Maximum frame rate : 30.010 FPS
Color space : YUV
Chroma subsampling : 4:2:0
Bit depth : 8 bits
Bits/(Pixel*Frame) : 0.043
Stream size : 1.58 GiB (99%)
Source stream size : 1.58 GiB (99%)
Writing library : Tencent-V265-1.6.9.1-p1k184g16lh64f4ra1.
Color range : Limited
Color primaries : BT.709
Transfer characteristics : BT.709
Matrix coefficients : BT.709
mdhd_Duration : 1272075
Codec configuration box : hvcC

Audio
ID : 2
Format : AAC LC
Format/Info : Advanced Audio Codec Low Complexity
Codec ID : mp4a-40-2
Duration : 21 min 12 s
Bit rate mode : Constant
Bit rate : 125 kb/s
Channel(s) : 2 channels
Channel layout : L R
Sampling rate : 48.0 kHz
Frame rate : 46.875 FPS (1024 SPF)
Compression mode : Lossy
Stream size : 19.0 MiB (1%)
Language : Chinese
Default : Yes
Alternate group : 1




1 个附件 售价 大小 下载 时间

2023.S02.2160p.30fps.WEB-DL.HEVC.AAC-Xunlei[1LOU.ME].torrent 0 金币 6.81K 511 次 2月前

#1楼
发帖时间:2023-12-02 13:12:51   |   回复数:0
游客组