BILL36
超凡入圣№

[2023] [日本] [动画] [WEB-1080P] 女友成堆 第二季[第09集][中文字幕].Kanojo.mo.Kanojo.2023.S02.1080p.LINETV.WEB-DL.AVC.AAC-Xunle

-->

完整标题:女友成堆 第二季[第09集][中文字幕].Kanojo.mo.Kanojo.2023.S02.1080p.LINETV.WEB-DL.AVC.AAC-Xunlei 0.44GB



◎标  题 女友成堆 第二季
◎译  名 女友成双 第二季
◎片  名 カノジョも彼女 Season 2
◎年  代 2023
◎产  地 日本
◎类  别 动画
◎语  言 日语
◎IMDb链接 https://www.imdb.com/title//
◎豆瓣评分 7.4/10 (93人评价)
◎豆瓣链接 https://movie.douban.com/subject/36097590/
◎导  演 铃木孝聪 Suzuki Takaaki
      桑原智 Kuwahara Satoshi
◎编  剧 大知庆一郎 Oochi Keiichirou
◎演  员 榎木淳弥 Junya Enoki
      佐仓绫音 Ayane Sakura
      和气杏未 Azumi Waki
      竹达彩奈 Ayana Taketatsu
      高桥李依 Rie Takahashi
      关智一 Tomokazu Seki
      小清水亚美 Ami Koshimizu
      古贺葵 Aoi Koga

◎简  介
    电视动画《女友成堆》宣布制作第二季,详情待后续发表!

部分资源为软字幕,移动端推荐播放器:MxPlayer,nPlayer,infuse ,其他播放器请自行尝试。

部分资源为软字幕,电脑端推荐播放器:PotPlayer,完美解码,KMPLAYER,其他播放器请自行尝试。

##### MediaInfo ######
General
Complete name : 女友成堆 第二季.Kanojo.mo.Kanojo.2023.S02E09.1080p.LINETV.WEB-DL.AVC.AAC-Xunlei.mp4
Duration : 24 min 12 s
Overall bit rate mode : Variable
Overall bit rate : 2 609 kb/s

Video
ID : 1
Format : AVC
Format/Info : Advanced Video Codec
Format profile : High@L4
Format settings : CABAC / 3 Ref Frames
Format settings, CABAC : Yes
Format settings, Reference frames : 3 frames
Codec ID : avc1
Codec ID/Info : Advanced Video Coding
Duration : 24 min 12 s
Source duration : 24 min 12 s
Bit rate mode : Variable
Bit rate : 2 476 kb/s
Maximum bit rate : 9 000 kb/s
Width : 1 920 pixels
Height : 1 080 pixels
Display aspect ratio : 16:9
Frame rate mode : Variable
Frame rate : 23.976 (24000/1001) FPS
Minimum frame rate : 23.974 FPS
Maximum frame rate : 23.981 FPS
Color space : YUV
Chroma subsampling : 4:2:0
Bit depth : 8 bits
Scan type : Progressive
Bits/(Pixel*Frame) : 0.050
Stream size : 429 MiB (95%)
Source stream size : 429 MiB (95%)
mdhd_Duration : 1452067
Codec configuration box : avcC

Audio
ID : 2
Format : AAC LC
Format/Info : Advanced Audio Codec Low Complexity
Codec ID : mp4a-40-2
Duration : 24 min 12 s
Bit rate mode : Constant
Bit rate : 125 kb/s
Channel(s) : 2 channels
Channel layout : L R
Sampling rate : 48.0 kHz
Frame rate : 46.875 FPS (1024 SPF)
Compression mode : Lossy
Stream size : 21.7 MiB (5%)
Language : Japanese
Default : Yes
Alternate group : 1




1 个附件 售价 大小 下载 时间

Kanojo.mo.Kanojo.2023.S02.1080p.LINETV.WEB-DL.AVC.AAC-Xunlei[1LOU.ME].torrent 0 金币 3.87K 91 次 2月前

#1楼
发帖时间:2023-12-02 13:12:23   |   回复数:0
游客组