BILL36
超凡入圣№

[2023] [日本] [动作] [WEB-1080P] 不死不幸[第09集][中文字幕].Undead.Unluck.2023.S01.1080p.LINETV.WEB-DL.AVC.AAC-Xunlei 0.70G

-->

完整标题:不死不幸[第09集][中文字幕].Undead.Unluck.2023.S01.1080p.LINETV.WEB-DL.AVC.AAC-Xunlei 0.70GB



◎标  题 不死不幸
◎译  名 Undead Unluck
◎片  名 アンデッドアンラック
◎年  代 2023
◎产  地 日本
◎类  别 动作 / 动画 / 冒险
◎语  言 日语
◎IMDb链接 https://www.imdb.com/title/tt21927720/
◎豆瓣链接 https://movie.douban.com/subject/35427283/
◎导  演 八濑祐树 Yase Yuuki
◎演  员 中村悠一 Yuuichi Nakamura
      佳原萌枝 Moe Kahara
      游佐浩二 Koji Yusa
      冈本信彦 Nobuhiko Okamoto
      钉宫理惠 Rie Kugimiya
      小山力也 Rikiya Koyama
      伊濑茉莉也 Mariya Ise
      悠木碧 Aoi Yuki
      乃村健次 Kenji Nomura
      花江夏树 Natsuki Hanae
      杉田智和 Tomokazu Sugita

◎简  介
    出云风子在8岁时,因自己的能力“不幸”造成了一场200人死亡的飞机事故,而她的双亲也在事故中丧生,她自此10年闭门不出。2020年8月,在一直追看的长篇少女漫画连载完结后,她决定自杀。此时她遇见拥有“不死”能力的安迪。安迪凭借其强大的再生能力,即使在风子“不幸”能力的影响下仍能生还。阻止风子自杀后,两人出发寻找让安迪死去的方法。   随后,风子发现世上还有其他人拥有类似的异能。能够否定某事物的人被称为“否定者”,亦有由否定者组成的组织“Union”。“Union”的职责为完成“默示录”所给予的任务,例如去讨伐UMA(未确认生物)等,以规避世界再被添加“规则”,然后导致世界灭亡的下场。

部分资源为软字幕,移动端推荐播放器:MxPlayer,nPlayer,infuse ,其他播放器请自行尝试。

部分资源为软字幕,电脑端推荐播放器:PotPlayer,完美解码,KMPLAYER,其他播放器请自行尝试。

##### MediaInfo ######
General
Complete name : 不死不幸.Undead.Unluck.2023.S01E09.1080p.LINETV.WEB-DL.AVC.AAC-Xunlei.mp4
Duration : 23 min 50 s
Overall bit rate mode : Variable
Overall bit rate : 4 203 kb/s

Video
ID : 1
Format : AVC
Format/Info : Advanced Video Codec
Format profile : High@L4
Format settings : CABAC / 3 Ref Frames
Format settings, CABAC : Yes
Format settings, Reference frames : 3 frames
Codec ID : avc1
Codec ID/Info : Advanced Video Coding
Duration : 23 min 50 s
Source duration : 23 min 49 s
Bit rate mode : Variable
Bit rate : 4 054 kb/s
Maximum bit rate : 9 000 kb/s
Width : 1 920 pixels
Height : 1 080 pixels
Display aspect ratio : 16:9
Frame rate mode : Variable
Frame rate : 23.976 (24000/1001) FPS
Minimum frame rate : 23.974 FPS
Maximum frame rate : 23.981 FPS
Color space : YUV
Chroma subsampling : 4:2:0
Bit depth : 8 bits
Scan type : Progressive
Bits/(Pixel*Frame) : 0.082
Stream size : 691 MiB (96%)
Source stream size : 691 MiB (96%)
mdhd_Duration : 1430003
Codec configuration box : avcC

Audio
ID : 2
Format : AAC LC
Format/Info : Advanced Audio Codec Low Complexity
Codec ID : mp4a-40-2
Duration : 23 min 49 s
Bit rate mode : Constant
Bit rate : 125 kb/s
Channel(s) : 2 channels
Channel layout : L R
Sampling rate : 48.0 kHz
Frame rate : 46.875 FPS (1024 SPF)
Compression mode : Lossy
Stream size : 21.4 MiB (3%)
Language : Japanese
Default : Yes
Alternate group : 1




1 个附件 售价 大小 下载 时间

Undead.Unluck.2023.S01.1080p.LINETV.WEB-DL.AVC.AAC-Xunlei[1LOU.ME].torrent 0 金币 4.49K 140 次 2月前

#1楼
发帖时间:2023-12-02 13:11:14   |   回复数:0
游客组