lvchao9947
一代宗师

[2021] [大陆] [剧情] [WEB-1080P] 谢谢你温暖我的世界[国语配音/中文字幕].Grateful.to.Have.You.2021.1080p.WEB-DL.H264.AAC-MOMOWEB 1.2

-->

完整标题:谢谢你温暖我的世界[国语配音/中文字幕].Grateful.to.Have.You.2021.1080p.WEB-DL.H264.AAC-MOMOWEB 1.27GB



◎标  题 谢谢你温暖我的世界
◎译  名 在冷酷仙境的那一年 / Grateful to Have You
◎年  代 2021
◎产  地 中国大陆
◎类  别 剧情
◎语  言 汉语普通话
◎上映日期 2021-10-13(平遥国际影展)
◎IMDb链接 https://www.imdb.com/title/tt16918438/
◎豆瓣链接 https://movie.douban.com/subject/35049228/
◎片  长 100分钟
◎导  演 贾溯 Su Jia
◎编  剧 贾溯 Su Jia
◎演  员 钱冬旎 Dongni Qian
      孔奇力 Qili Kong
      曲博 Bo Qu
      张宇柠 Yuning Zhang

◎简  介
    高三的一场考试改变了钱梁、朱乐乐和肖楠三人的命运。多年之后,随着身为三人关系核心的钱梁意外离世,隐藏在三人之间的一个又一个秘密渐渐浮出水面。最终,众人心中的爱恨情仇,随着钱梁葬礼的举行被化解。

点击图片可查看大图

软字幕无法在截图上展现,HDR版本/杜比视界版本截图会出现颜色异常,请使用支持的设备播放!

##### MediaInfo ######
General
Complete name : Grateful.to.Have.You.2021.1080p.WEB-DL.H264.AAC-MOMOWEB.mp4
Duration : 1 h 40 min
Overall bit rate : 1 805 kb/s

Video
ID : 1
Format : AVC
Format/Info : Advanced Video Codec
Format profile : High@L4
Format settings : CABAC / 3 Ref Frames
Format settings, CABAC : Yes
Format settings, Reference frames : 3 frames
Codec ID : avc1
Codec ID/Info : Advanced Video Coding
Duration : 1 h 40 min
Bit rate : 1 609 kb/s
Width : 1 920 pixels
Height : 1 040 pixels
Display aspect ratio : 1.85:1
Frame rate mode : Constant
Frame rate : 24.000 FPS
Color space : YUV
Chroma subsampling : 4:2:0
Bit depth : 8 bits
Scan type : Progressive
Bits/(Pixel*Frame) : 0.034
Stream size : 1.13 GiB (89%)
Color range : Limited
Color primaries : BT.709
Transfer characteristics : BT.709
Matrix coefficients : BT.709
Codec configuration box : avcC

Audio
ID : 2
Format : AAC LC
Format/Info : Advanced Audio Codec Low Complexity
Codec ID : mp4a-40-2
Duration : 1 h 40 min
Bit rate mode : Constant
Bit rate : 192 kb/s
Channel(s) : 2 channels
Channel layout : L R
Sampling rate : 44.1 kHz
Frame rate : 43.066 FPS (1024 SPF)
Compression mode : Lossy
Stream size : 136 MiB (11%)
Default : Yes
Alternate group : 1


部分资源为软字幕,移动端推荐播放器:MxPlayer,nPlayer,infuse ,其他播放器请自行尝试。

部分资源为软字幕,电脑端推荐播放器:PotPlayer,完美解码,KMPLAYER,其他播放器请自行尝试。

下载端推荐纯BT下载软件:qBittorrent,Bitcomet,uTorrent ,其他下载软件请自行尝试。不支持吸血迅雷。



1 个附件 售价 大小 下载 时间

Grateful.to.Have.You.2021.1080p.WEB-DL.H264.AAC-MOMOWEB[1LOU.ME].torrent 0 金币 5.82K 700 次 1月前

#1楼
发帖时间:2024-05-21 19:27:05   |   回复数:0
游客组