lvchao9947
一代宗师

[2018] [其它] [喜剧] [WEB-1080P] 糖耳朵[简繁英字幕].Jalebi.2018.1080p.AMZN.WEB-DL.H264.DDP5.1-MOMOWEB 6.43GB

-->

完整标题:糖耳朵[简繁英字幕].Jalebi.2018.1080p.AMZN.WEB-DL.H264.DDP5.1-MOMOWEB 6.43GB



◎标  题 糖耳朵
◎片  名 Jalebi
◎年  代 2018
◎产  地 印度 India
◎类  别 喜剧 / 爱情
◎语  言 印地语 Hindi
◎上映日期 2018-10-12(印度)
◎IMDb评分 6.1/10 (3092人评价)
◎IMDb链接 https://www.imdb.com/title/tt8426854/
◎豆瓣评分 6.6/10 (183人评价)
◎豆瓣链接 https://movie.douban.com/subject/30328618/
◎演  员 雷亚·查克雷伯蒂 Rhea Chakraborty

◎简  介
    阿伊莎(雷亚·查克雷伯蒂 Rhea Chakraborty 饰)是一位小有所成的畅销书作者,虽然在事业上取得了不菲的成就,但曾经经历过一段失败感情的她至今都没有走出阴影。某日,阿伊莎登上了前往新德里的火车,在那里,她要举办一场签售会。在火车上,阿伊莎邂逅了一一位带着孩子的女子,让阿伊莎感到震惊的是,这个女人不是别人,竟然正是自己的前男友德夫妻子,得知了这一信息的阿伊莎崩溃了。   本来以为早已经尘封的记忆突然间变得鲜活起来,过去的一幕幕像放电影一样在阿伊莎的脑海里呈现。这两个人之间到底发生了怎样的故事以至于阿伊莎这样的久久无法忘怀呢?

点击图片可查看大图

软字幕无法在截图上展现,HDR版本/杜比视界版本截图会出现颜色异常,请使用支持的设备播放!

##### MediaInfo ######
General
Unique ID : 205244587334180561397834993664117547504 (0x9A68AB6F4C68DCB9B96DB58C5A21A1F0)
Complete name : Jalebi.2018.1080p.AMZN.WEB-DL.H264.DDP5.1-MOMOWEB.mkv
Duration : 1 h 43 min
Overall bit rate : 8 867 kb/s

Video
ID : 1
Format : AVC
Format/Info : Advanced Video Codec
Format profile : High@L4
Format settings : CABAC / 4 Ref Frames
Format settings, CABAC : Yes
Format settings, Reference frames : 4 frames
Codec ID : V_MPEG4/ISO/AVC
Duration : 1 h 43 min
Bit rate mode : Constant
Bit rate : 8 223 kb/s
Nominal bit rate : 10 000 kb/s
Width : 1 920 pixels
Height : 816 pixels
Display aspect ratio : 2.35:1
Frame rate mode : Constant
Frame rate : 24.000 FPS
Color space : YUV
Chroma subsampling : 4:2:0
Bit depth : 8 bits
Scan type : Progressive
Bits/(Pixel*Frame) : 0.219
Stream size : 5.97 GiB (93%)
Default : Yes
Forced : No
Color range : Limited
Color primaries : BT.709
Transfer characteristics : BT.709
Matrix coefficients : BT.709

Audio
ID : 2
Format : E-AC-3
Format/Info : Enhanced AC-3
Commercial name : Dolby Digital Plus
Codec ID : A_EAC3
Duration : 1 h 43 min
Bit rate mode : Constant
Bit rate : 640 kb/s
Channel(s) : 6 channels
Channel layout : L R C LFE Ls Rs
Sampling rate : 48.0 kHz
Frame rate : 31.250 FPS (1536 SPF)
Compression mode : Lossy
Stream size : 475 MiB (7%)
Language : Hindi
Service kind : Complete Main
Default : Yes
Forced : No

Text #1
ID : 3
Format : UTF-8
Codec ID : S_TEXT/UTF8
Codec ID/Info : UTF-8 Plain Text
Duration : 1 h 41 min
Bit rate : 72 b/s
Frame rate : 0.214 FPS
Count of elements : 1305
Stream size : 54.0 KiB (0%)
Language : Arabic
Default : No
Forced : No

Text #2
ID : 4
Format : UTF-8
Codec ID : S_TEXT/UTF8
Codec ID/Info : UTF-8 Plain Text
Duration : 1 h 41 min
Bit rate : 49 b/s
Frame rate : 0.216 FPS
Count of elements : 1317
Stream size : 36.7 KiB (0%)
Language : English
Default : No
Forced : No

Text #3
ID : 5
Format : UTF-8
Codec ID : S_TEXT/UTF8
Codec ID/Info : UTF-8 Plain Text
Duration : 1 h 41 min
Bit rate : 51 b/s
Frame rate : 0.216 FPS
Count of elements : 1318
Stream size : 38.5 KiB (0%)
Language : fil
Default : No
Forced : No

Text #4
ID : 6
Format : UTF-8
Codec ID : S_TEXT/UTF8
Codec ID/Info : UTF-8 Plain Text
Duration : 1 h 40 min
Bit rate : 44 b/s
Frame rate : 0.185 FPS
Count of elements : 1120
Stream size : 32.9 KiB (0%)
Language : Indonesian
Default : No
Forced : No

Text #5
ID : 7
Format : UTF-8
Codec ID : S_TEXT/UTF8
Codec ID/Info : UTF-8 Plain Text
Duration : 1 h 41 min
Bit rate : 52 b/s
Frame rate : 0.216 FPS
Count of elements : 1321
Stream size : 39.2 KiB (0%)
Language : Malay
Default : No
Forced : No

Text #6
ID : 8
Format : UTF-8
Codec ID : S_TEXT/UTF8
Codec ID/Info : UTF-8 Plain Text
Duration : 1 h 43 min
Bit rate : 78 b/s
Frame rate : 0.209 FPS
Count of elements : 1295
Stream size : 59.6 KiB (0%)
Language : Russian
Default : No
Forced : No

Text #7
ID : 9
Format : UTF-8
Codec ID : S_TEXT/UTF8
Codec ID/Info : UTF-8 Plain Text
Duration : 1 h 40 min
Bit rate : 143 b/s
Frame rate : 0.198 FPS
Count of elements : 1200
Stream size : 106 KiB (0%)
Language : Tamil
Default : No
Forced : No

Text #8
ID : 10
Format : UTF-8
Codec ID : S_TEXT/UTF8
Codec ID/Info : UTF-8 Plain Text
Duration : 1 h 40 min
Bit rate : 130 b/s
Frame rate : 0.198 FPS
Count of elements : 1200
Stream size : 96.5 KiB (0%)
Language : Telugu
Default : No
Forced : No

Text #9
ID : 11
Format : UTF-8
Codec ID : S_TEXT/UTF8
Codec ID/Info : UTF-8 Plain Text
Duration : 1 h 41 min
Bit rate : 123 b/s
Frame rate : 0.221 FPS
Count of elements : 1348
Stream size : 92.0 KiB (0%)
Language : Thai
Default : No
Forced : No

Text #10
ID : 12
Format : UTF-8
Codec ID : S_TEXT/UTF8
Codec ID/Info : UTF-8 Plain Text
Duration : 1 h 40 min
Bit rate : 42 b/s
Frame rate : 0.197 FPS
Count of elements : 1192
Stream size : 31.5 KiB (0%)
Title : 中文[简体]
Language : Chinese
Default : No
Forced : No

Text #11
ID : 13
Format : UTF-8
Codec ID : S_TEXT/UTF8
Codec ID/Info : UTF-8 Plain Text
Duration : 1 h 40 min
Bit rate : 40 b/s
Frame rate : 0.183 FPS
Count of elements : 1106
Stream size : 29.9 KiB (0%)
Title : 中文[繁體]
Language : Chinese
Default : No
Forced : No


部分资源为软字幕,移动端推荐播放器:MxPlayer,nPlayer,infuse ,其他播放器请自行尝试。

部分资源为软字幕,电脑端推荐播放器:PotPlayer,完美解码,KMPLAYER,其他播放器请自行尝试。

下载端推荐纯BT下载软件:qBittorrent,Bitcomet,uTorrent ,其他下载软件请自行尝试。不支持吸血迅雷。



1 个附件 售价 大小 下载 时间

Jalebi.2018.1080p.AMZN.WEB-DL.H264.DDP5.1-MOMOWEB[1LOU.ME].torrent 0 金币 18.70K 896 次 1月前

#1楼
发帖时间:2024-05-21 00:18:46   |   回复数:0
游客组