lvchao9947
一代宗师

[2018] [韩国] [动作] [WEB-1080P] 人狼[简繁英字幕].Illang.The.Wolf.Brigade.2018.1080p.NF.WEB-DL.x264.DDP5.1-MOMOWEB 4.24G

-->

完整标题:人狼[简繁英字幕].Illang.The.Wolf.Brigade.2018.1080p.NF.WEB-DL.x264.DDP5.1-MOMOWEB 4.24GB



◎标  题 人狼
◎译  名 Illang: The Wolf Brigade / Inrang
◎片  名 인랑
◎年  代 2018
◎产  地 韩国
◎类  别 动作 / 爱情 / 科幻
◎语  言 韩语
◎上映日期 2018-07-25(韩国)
◎IMDb评分 5.9/10 (5416人评价)
◎IMDb链接 https://www.imdb.com/title/tt3967878/
◎豆瓣评分 5.4/10 (5905人评价)
◎豆瓣链接 https://movie.douban.com/subject/20442984/
◎片  长 138分钟
◎导  演 金知云 Jee-woon Kim
◎编  剧 金知云 Jee-woon Kim
      押井守 Mamoru Oshii
◎演  员 姜栋元 Dong-won Kang
      韩孝周 Hyo-joo Han
      郑雨盛 Woo-sung Jung
      金武烈 Moo-yeol Kim
      韩艺璃 Ye-ri Han
      许峻豪 Jun-ho Heo
      崔珉豪 Min-ho Choi
      申银秀 Eun-Soo Shin
      崔镇浩 Jin-ho Choi
      玉子妍 Ja-yeon Ok
      李济延 Lee Je-yeon
      李东河 Lee Dong-Ha
      李率求 Seol-goo Lee
      沈昭英 So-yeong Sim
      郑元中 Won-jung Jeong
      金宰荣 Jae-young Kim
      刘尚宰 Sang-jae Yoo
      郑基燮 Gi-seop Jeong
      刘志龙 Ji-yong Yoo
      金范来 Kim Beop-rae
      金哲允 Cheol-yoon Kim
      林智亨 Ji-hyeong Im
      朴炳垠 Byung-eun Park
      文艺媛 Ye-won Moon
      全余赟 Jeon Yeo-bin
      张元亨 Jang Won-hyeong
      洪仁 Hong In
      朴晟泽 Song-tech Park
      金炫俊 Kim Hyun-jun
      文在元 Jae-won Moon
      姜贤重 Hyun-joong Kang
      朴正植 Jeong-sik Park
      郑美南 Mi-nam Jeong
      朴亨洙 Hyoung-soo Park
      林哲亨 Lim Chul-hyung
      朴昼熙 Joo-hee Park
      金贤昌 Kim Hyeon-chang
      全振序 Jin-seo Jun
      宋智贤 Ji-hyeon Song
      许正熙 Jeong-hee Heo
      洪承逸 Seung-il Hong
      杨道贤 Do-hyeon Yang
      申载敏 Jae-min Sin
      全光镇 Kwang-jin Jeon
      Ma-ro Choi Ma-ro Choi
      申成日 Sung-il Shin
      白承益 Seung-ik Baek
      李东熙 Dong-hee Lee
      赵云 Jo Won
      Ee-geon Kim Ee-geon Kim
      金文学 Moon-hak Kim
      Hyeok-beom Kwon Hyeok-beom Kwon
      崔昌均 Chang-gyoon Choi
      Jae-han Park Jae-han Park
      Hwak-gwang Lee Hwak-gwang Lee
      文珠妍 Ju-yeon Moon
      郑亨奭 Hyeong-Seok Jeong
      金其范 Kim Gi-beom
      金艺恩 Ye-eun Kim
      郑汉斌 Jung Han Bin
      张汝彬 Yeobin Jang
      Won-cheol Kwon Won-cheol Kwon
      姜智久 Ji-goo Kang

◎简  介
    2024年,朝鲜半岛局势发生重大变化。为了抵制美、俄、中、日四国的压力,朝鲜与韩国决定统一。然而,韩国国内反对统一的呼声甚嚣尘上,怀有不同政治目的的“党派”则在乱象中起到推波助澜的作用。为此,韩国政府组建了全新的警察组织特殊机动队以镇压动乱,结果导致了果川走火事件。从此以后,特殊机动队遭到民众乃至部分政客的憎恶,而公安部更试图伺机解散特殊部队。2029年,在最近一次行动中受伤的特殊部队成员林钟景(姜栋元 饰),在昔日战友而今成为公安部干部韩尚宇(金武烈 饰)的安排下,与果川事件遇害女孩的姐姐李允熙(韩孝周 饰)会面。谁知,这却是一场攸关林钟景以及整个特殊部队命运的圈套……   本片根据押井守的同名动画改编。

点击图片可查看大图

软字幕无法在截图上展现,HDR版本/杜比视界版本截图会出现颜色异常,请使用支持的设备播放!

##### MediaInfo ######
General
Unique ID : 58077340854277532368814911116221983278 (0x2BB149FADDBC44D14258D5D71F2DAA2E)
Complete name : Illang.The.Wolf.Brigade.2018.1080p.NF.WEB-DL.x264.DDP5.1-MOMOWEB.mkv
Duration : 2 h 19 min
Overall bit rate mode : Variable
Overall bit rate : 4 339 kb/s

Video
ID : 1
Format : AVC
Format/Info : Advanced Video Codec
Format profile : High@L4
Format settings : CABAC / 4 Ref Frames
Format settings, CABAC : Yes
Format settings, Reference frames : 4 frames
Codec ID : V_MPEG4/ISO/AVC
Duration : 2 h 19 min
Bit rate mode : Variable
Bit rate : 3 696 kb/s
Maximum bit rate : 20.0 Mb/s
Width : 1 920 pixels
Height : 1 080 pixels
Display aspect ratio : 16:9
Frame rate mode : Constant
Frame rate : 23.976 (24000/1001) FPS
Color space : YUV
Chroma subsampling : 4:2:0
Bit depth : 8 bits
Scan type : Progressive
Bits/(Pixel*Frame) : 0.074
Stream size : 3.61 GiB (85%)
Writing library : x264 core 148 r2715 7e75228
Encoding settings : cabac=1 / ref=4 / deblock=1:0:0 / analyse=0x3:0x111 / me=umh / subme=10 / psy=1 / psy_rd=1.00:0.00 / mixed_ref=1 / me_range=120 / chroma_me=1 / trellis=2 / 8x8dct=1 / cqm=0 / deadzone=21,11 / fast_pskip=1 / chroma_qp_offset=-2 / threads=8 / lookahead_threads=2 / sliced_threads=0 / nr=0 / decimate=1 / interlaced=0 / bluray_compat=0 / stitchable=1 / constrained_intra=0 / bframes=16 / b_pyramid=2 / b_adapt=2 / b_bias=0 / direct=3 / weightb=1 / open_gop=0 / weightp=2 / keyint=240 / keyint_min=121 / scenecut=0 / intra_refresh=0 / rc_lookahead=240 / rc=crf / mbtree=1 / crf=16.0 / qcomp=0.50 / qpmin=6 / qpmax=51 / qpstep=4 / vbv_maxrate=20000 / vbv_bufsize=25000 / crf_max=0.0 / nal_hrd=vbr / filler=0 / ip_ratio=1.40 / aq=1:0.80
Default : Yes
Forced : No

Audio
ID : 2
Format : E-AC-3
Format/Info : Enhanced AC-3
Commercial name : Dolby Digital Plus
Codec ID : A_EAC3
Duration : 2 h 19 min
Bit rate mode : Constant
Bit rate : 640 kb/s
Channel(s) : 6 channels
Channel layout : L R C LFE Ls Rs
Sampling rate : 48.0 kHz
Frame rate : 31.250 FPS (1536 SPF)
Compression mode : Lossy
Stream size : 640 MiB (15%)
Language : Korean
Service kind : Complete Main
Default : Yes
Forced : No

Text #1
ID : 3
Format : UTF-8
Codec ID : S_TEXT/UTF8
Codec ID/Info : UTF-8 Plain Text
Duration : 2 h 18 min
Bit rate : 38 b/s
Frame rate : 0.102 FPS
Count of elements : 845
Stream size : 38.6 KiB (0%)
Language : Arabic
Default : No
Forced : No

Text #2
ID : 4
Format : UTF-8
Codec ID : S_TEXT/UTF8
Codec ID/Info : UTF-8 Plain Text
Duration : 2 h 18 min
Bit rate : 27 b/s
Frame rate : 0.101 FPS
Count of elements : 838
Stream size : 27.6 KiB (0%)
Language : Danish
Default : No
Forced : No

Text #3
ID : 5
Format : UTF-8
Codec ID : S_TEXT/UTF8
Codec ID/Info : UTF-8 Plain Text
Duration : 2 h 18 min
Bit rate : 28 b/s
Frame rate : 0.101 FPS
Count of elements : 837
Stream size : 28.6 KiB (0%)
Language : German
Default : No
Forced : No

Text #4
ID : 6
Format : UTF-8
Codec ID : S_TEXT/UTF8
Codec ID/Info : UTF-8 Plain Text
Duration : 2 h 18 min
Bit rate : 47 b/s
Frame rate : 0.101 FPS
Count of elements : 838
Stream size : 47.7 KiB (0%)
Language : Greek
Default : No
Forced : No

Text #5
ID : 7
Format : UTF-8
Codec ID : S_TEXT/UTF8
Codec ID/Info : UTF-8 Plain Text
Duration : 2 h 19 min
Bit rate : 2 b/s
Frame rate : 0.007 FPS
Count of elements : 59
Stream size : 2.14 KiB (0%)
Title : Forced
Language : English
Default : No
Forced : No

Text #6
ID : 8
Format : UTF-8
Codec ID : S_TEXT/UTF8
Codec ID/Info : UTF-8 Plain Text
Duration : 2 h 18 min
Bit rate : 27 b/s
Frame rate : 0.102 FPS
Count of elements : 845
Stream size : 27.9 KiB (0%)
Language : English
Default : No
Forced : No

Text #7
ID : 9
Format : UTF-8
Codec ID : S_TEXT/UTF8
Codec ID/Info : UTF-8 Plain Text
Duration : 2 h 18 min
Bit rate : 30 b/s
Frame rate : 0.108 FPS
Count of elements : 892
Stream size : 30.7 KiB (0%)
Language : Spanish
Default : No
Forced : No

Text #8
ID : 10
Format : UTF-8
Codec ID : S_TEXT/UTF8
Codec ID/Info : UTF-8 Plain Text
Duration : 2 h 18 min
Bit rate : 28 b/s
Frame rate : 0.102 FPS
Count of elements : 845
Stream size : 28.7 KiB (0%)
Language : Spanish
Default : No
Forced : No

Text #9
ID : 11
Format : UTF-8
Codec ID : S_TEXT/UTF8
Codec ID/Info : UTF-8 Plain Text
Duration : 2 h 18 min
Bit rate : 25 b/s
Frame rate : 0.101 FPS
Count of elements : 841
Stream size : 25.4 KiB (0%)
Language : Finnish
Default : No
Forced : No

Text #10
ID : 12
Format : UTF-8
Codec ID : S_TEXT/UTF8
Codec ID/Info : UTF-8 Plain Text
Duration : 2 h 18 min
Bit rate : 28 b/s
Frame rate : 0.101 FPS
Count of elements : 836
Stream size : 28.7 KiB (0%)
Language : French
Default : No
Forced : No

Text #11
ID : 13
Format : UTF-8
Codec ID : S_TEXT/UTF8
Codec ID/Info : UTF-8 Plain Text
Duration : 2 h 18 min
Bit rate : 34 b/s
Frame rate : 0.102 FPS
Count of elements : 845
Stream size : 35.3 KiB (0%)
Language : Hebrew
Default : No
Forced : No

Text #12
ID : 14
Format : UTF-8
Codec ID : S_TEXT/UTF8
Codec ID/Info : UTF-8 Plain Text
Duration : 2 h 18 min
Bit rate : 29 b/s
Frame rate : 0.103 FPS
Count of elements : 856
Stream size : 30.2 KiB (0%)
Language : Indonesian
Default : No
Forced : No

Text #13
ID : 15
Format : UTF-8
Codec ID : S_TEXT/UTF8
Codec ID/Info : UTF-8 Plain Text
Duration : 2 h 18 min
Bit rate : 27 b/s
Frame rate : 0.102 FPS
Count of elements : 844
Stream size : 28.2 KiB (0%)
Language : Italian
Default : No
Forced : No

Text #14
ID : 16
Format : UTF-8
Codec ID : S_TEXT/UTF8
Codec ID/Info : UTF-8 Plain Text
Duration : 2 h 18 min
Bit rate : 25 b/s
Frame rate : 0.110 FPS
Count of elements : 917
Stream size : 26.3 KiB (0%)
Language : Japanese
Default : No
Forced : No

Text #15
ID : 17
Format : UTF-8
Codec ID : S_TEXT/UTF8
Codec ID/Info : UTF-8 Plain Text
Duration : 2 h 18 min
Bit rate : 36 b/s
Frame rate : 0.117 FPS
Count of elements : 972
Stream size : 36.9 KiB (0%)
Title : SDH
Language : Korean
Default : No
Forced : No

Text #16
ID : 18
Format : UTF-8
Codec ID : S_TEXT/UTF8
Codec ID/Info : UTF-8 Plain Text
Duration : 2 h 18 min
Bit rate : 25 b/s
Frame rate : 0.101 FPS
Count of elements : 837
Stream size : 26.2 KiB (0%)
Language : Norwegian Bokmal
Default : No
Forced : No

Text #17
ID : 19
Format : UTF-8
Codec ID : S_TEXT/UTF8
Codec ID/Info : UTF-8 Plain Text
Duration : 2 h 18 min
Bit rate : 24 b/s
Frame rate : 0.101 FPS
Count of elements : 835
Stream size : 25.1 KiB (0%)
Language : Dutch
Default : No
Forced : No

Text #18
ID : 20
Format : UTF-8
Codec ID : S_TEXT/UTF8
Codec ID/Info : UTF-8 Plain Text
Duration : 2 h 18 min
Bit rate : 26 b/s
Frame rate : 0.101 FPS
Count of elements : 840
Stream size : 26.8 KiB (0%)
Language : Polish
Default : No
Forced : No

Text #19
ID : 21
Format : UTF-8
Codec ID : S_TEXT/UTF8
Codec ID/Info : UTF-8 Plain Text
Duration : 2 h 18 min
Bit rate : 27 b/s
Frame rate : 0.102 FPS
Count of elements : 844
Stream size : 27.9 KiB (0%)
Title : Brasil
Language : Portuguese
Default : No
Forced : No

Text #20
ID : 22
Format : UTF-8
Codec ID : S_TEXT/UTF8
Codec ID/Info : UTF-8 Plain Text
Duration : 2 h 18 min
Bit rate : 28 b/s
Frame rate : 0.102 FPS
Count of elements : 845
Stream size : 28.9 KiB (0%)
Title : Portugal
Language : Portuguese
Default : No
Forced : No

Text #21
ID : 23
Format : UTF-8
Codec ID : S_TEXT/UTF8
Codec ID/Info : UTF-8 Plain Text
Duration : 2 h 18 min
Bit rate : 27 b/s
Frame rate : 0.102 FPS
Count of elements : 844
Stream size : 27.7 KiB (0%)
Language : Romanian
Default : No
Forced : No

Text #22
ID : 24
Format : UTF-8
Codec ID : S_TEXT/UTF8
Codec ID/Info : UTF-8 Plain Text
Duration : 2 h 18 min
Bit rate : 43 b/s
Frame rate : 0.102 FPS
Count of elements : 844
Stream size : 44.5 KiB (0%)
Language : Russian
Default : No
Forced : No

Text #23
ID : 25
Format : UTF-8
Codec ID : S_TEXT/UTF8
Codec ID/Info : UTF-8 Plain Text
Duration : 2 h 18 min
Bit rate : 27 b/s
Frame rate : 0.102 FPS
Count of elements : 845
Stream size : 27.7 KiB (0%)
Language : Swedish
Default : No
Forced : No

Text #24
ID : 26
Format : UTF-8
Codec ID : S_TEXT/UTF8
Codec ID/Info : UTF-8 Plain Text
Duration : 2 h 18 min
Bit rate : 68 b/s
Frame rate : 0.102 FPS
Count of elements : 844
Stream size : 69.6 KiB (0%)
Language : Thai
Default : No
Forced : No

Text #25
ID : 27
Format : UTF-8
Codec ID : S_TEXT/UTF8
Codec ID/Info : UTF-8 Plain Text
Duration : 2 h 18 min
Bit rate : 27 b/s
Frame rate : 0.102 FPS
Count of elements : 845
Stream size : 27.8 KiB (0%)
Language : Turkish
Default : No
Forced : No

Text #26
ID : 28
Format : UTF-8
Codec ID : S_TEXT/UTF8
Codec ID/Info : UTF-8 Plain Text
Duration : 2 h 18 min
Bit rate : 35 b/s
Frame rate : 0.102 FPS
Count of elements : 843
Stream size : 36.2 KiB (0%)
Language : Vietnamese
Default : No
Forced : No

Text #27
ID : 29
Format : UTF-8
Codec ID : S_TEXT/UTF8
Codec ID/Info : UTF-8 Plain Text
Duration : 2 h 18 min
Bit rate : 24 b/s
Frame rate : 0.102 FPS
Count of elements : 845
Stream size : 24.5 KiB (0%)
Title : 中文[简体]
Language : Chinese
Default : No
Forced : No

Text #28
ID : 30
Format : UTF-8
Codec ID : S_TEXT/UTF8
Codec ID/Info : UTF-8 Plain Text
Duration : 2 h 18 min
Bit rate : 23 b/s
Frame rate : 0.102 FPS
Count of elements : 844
Stream size : 23.8 KiB (0%)
Title : 中文[繁體]
Language : Chinese
Default : No
Forced : No


部分资源为软字幕,移动端推荐播放器:MxPlayer,nPlayer,infuse ,其他播放器请自行尝试。

部分资源为软字幕,电脑端推荐播放器:PotPlayer,完美解码,KMPLAYER,其他播放器请自行尝试。

下载端推荐纯BT下载软件:qBittorrent,Bitcomet,uTorrent ,其他下载软件请自行尝试。不支持吸血迅雷。



1 个附件 售价 大小 下载 时间

Illang.The.Wolf.Brigade.2018.1080p.NF.WEB-DL.x264.DDP5.1-MOMOWEB[1LOU.ME].torrent 0 金币 13.24K 2086 次 1月前

#1楼
发帖时间:2024-05-21 00:18:27   |   回复数:0
游客组