travismk
一代宗师

[更 早] [其它] [喜剧] [WEB-1080P] 狂暴者 Outrageous.1977.1080p.AMZN.WEBRip.DDP2.0.x264-PLiSSKEN 6.82GB

-->

帖子完整标题:狂暴者 Outrageous.1977.1080p.AMZN.WEBRip.DDP2.0.x264-PLiSSKEN 6.82GB



◎标  题 狂暴者
◎译  名 残暴
◎片  名 Outrageous!
◎年  代 1977
◎产  地 加拿大
◎类  别 喜剧
◎语  言 英语
◎上映日期 1977-07-31
◎IMDb评分 6.9/10 (964人评价)
◎IMDb链接 https://www.imdb.com/title/tt0076513/
◎豆瓣链接 https://movie.douban.com/subject/1298787/
◎片  长 96 分钟
◎演  员 克雷格·拉塞尔 Craig Russell
      Richert Easley Richert Easley
      迈克尔·艾恩塞德 Michael Ironside
      海伦·谢费 Helen Shaver
      Andrée Pelletier Andrée Pelletier
      玛莎·吉布森 Martha Gibson
      Gregory Terlecki Gregory Terlecki
      艾伦·莫伊尔 Allan Moyle
      Paul Hoffert Paul Hoffert

◎简  介
  One of the earliest North American gay-themed films to receive theatrical distribution, Outrageous! is a funny and affecting film about a female impersonator and his touching friendship with a schizophrenic girl. Craig Russell plays a gay hairdresser and star-wannabe who does flawless impressions of Barbra Streisand, Judy Garland, Bette Midler, Mae West and others. And while th...

Video
ID : 1
Format : AVC
Format/Info : Advanced Video Codec
Format profile : [email protected]
Format settings : CABAC / 4 Ref Frames
Format settings, CABAC : Yes
Format settings, Reference frames : 4 frames
Codec ID : V_MPEG4/ISO/AVC
Duration : 1 h 36 min
Bit rate mode : Constant
Bit rate : 10 000 kb/s
Width : 1 920 pixels
Height : 1 080 pixels
Display aspect ratio : 16:9
Frame rate mode : Constant
Frame rate : 23.976 (24000/1001/189150) FPS
Color space : YUV
Chroma subsampling : 4:2:0
Bit depth : 8 bits
Scan type : Progressive
Bits/(Pixel*Frame) : 0.201
Stream size : 6.67 GiB (98%)
Default : Yes
Forced : No
Color range : Limited
Color primaries : BT.709
Transfer characteristics : BT.709
Matrix coefficients : BT.709

Audio
ID : 2
Format : E-AC-3
Format/Info : Enhanced AC-3
Commercial name : Dolby Digital Plus
Codec ID : A_EAC3
Duration : 1 h 36 min
Bit rate mode : Constant
Bit rate : 224 kb/s
Channel(s) : 2 channels
Channel layout : L R
Sampling rate : 48.0 kHz
Frame rate : 31.250 FPS (1536 SPF)
Compression mode : Lossy
Stream size : 154 MiB (2%)
Language : English
Service kind : Complete Main
Default : Yes
Forced : No

Text
ID : 3
Format : UTF-8
Codec ID : S_TEXT/UTF8
Codec ID/Info : UTF-8 Plain Text
Duration : 1 h 36 min
Bit rate : 81 b/s
Frame rate : 0.313 FPS
Count of elements : 1809
Stream size : 57.6 KiB (0%)
Title : SDH
Language : English
Default : No
Forced : No





1 个附件 售价 大小 下载 时间

Outrageous.1977.1080p.AMZN.WEBRip.DDP2.0.x264-PLiSSKEN.torrent 0 金币 17.69K 189 次 1天前

#1楼
发帖时间:2022-08-06 11:21:50   |   回复数:0
游客组