squallzhao
一代宗师

[更 早] [美国] [剧情] [WEB-1080P] 夺宝奇案 The.Diamond.Trap.1988.1080p.WEBRip.x264-RARBG 1.93GB

-->

帖子完整标题:夺宝奇案 The.Diamond.Trap.1988.1080p.WEBRip.x264-RARBG 1.93GB



◎译  名 夺宝奇案
◎片  名 The Diamond Trap
◎年  代 1988
◎产  地 美国
◎类  别 剧情 / 动作
◎语  言 英语
◎上映日期 1988
◎IMDb链接 https://www.imdb.com/title/tt0095014/
◎豆瓣链接 https://movie.douban.com/subject/5046943/
◎片  长 93分钟
◎导  演 唐·泰勒 Don Taylor (id:1154867)
◎编  剧 David E. Peckinpah David E. Peckinpah (id:1050797)
◎演  员 霍华德·海瑟曼 Howard Hesseman (id:1092055)
      波姬·小丝 Brooke Shields (id:1019021)
      达伦·麦克加文 Darren McGavin (id:1048215)
      崔姬 Twiggy (id:1049910)
      迪克·奥尼尔 Dick O'Neill (id:1130286)
      Todd Eric Andrews Todd Eric Andrews (id:1056682)
      艾伦·休尔 Ellen Heuer (id:1286551)
      H.M. Wynant H.M. Wynant (id:1160948)
      威廉·尤泰 William Utay (id:1157257)
      Llewellyn Rees Llewellyn Rees (id:1141004)
      加里·佩吉特 Gary Pagett (id:1136916)
      尼古拉斯·普赖尔 Nicholas Pryor (id:1136302)
      Ed Marinaro Ed Marinaro (id:1119270)
      Wensley Pithey Wensley Pithey (id:1134189)
      Neil T. Maffeo Neil T. Maffeo (id:1025987)
      Johnny Goodman Johnny Goodman (id:1040485)
      Jay Bernstein Jay Bernstein (id:1064663)
      Patrick Dromgoole Patrick Dromgoole (id:1051721)
      Bob Edwards Bob Edwards (id:1048956)
      Tom Stevens Tom Stevens (id:1298417)
      Gary Shaffer Gary Shaffer (id:1017423)
      Don Homfray Don Homfray (id:1286857)
      Audrey A. Blasdel Audrey A. Blasdel (id:1278773)
      约翰·B·曼斯布里奇 John B. Mansbridge (id:1290902)
      Grady Hunt Grady Hunt (id:1287159)
      Jon Older Jon Older (id:1135580)

Video
ID : 1
Format : AVC
Format/Info : Advanced Video Codec
Format profile : [email protected]
Format settings : CABAC / 4 Ref Frames
Format settings, CABAC : Yes
Format settings, Reference frames : 4 frames
Codec ID : avc1
Codec ID/Info : Advanced Video Coding
Duration : 1 h 41 min
Bit rate : 2 500 kb/s
Width : 1 440 pixels
Height : 1 080 pixels
Display aspect ratio : 4:3
Frame rate mode : Constant
Frame rate : 29.970 (29970/1000/189150) FPS
Color space : YUV
Chroma subsampling : 4:2:0
Bit depth : 8 bits
Scan type : Progressive
Bits/(Pixel*Frame) : 0.054
Stream size : 1.77 GiB (91%)
Writing library : x264 core 152 r2851M ba24899
Encoding settings : cabac=1 / ref=4 / deblock=1:-1:-1 / analyse=0x3:0x113 / me=umh / subme=9 / psy=1 / psy_rd=1.00:0.15 / mixed_ref=1 / me_range=24 / chroma_me=1 / trellis=2 / 8x8dct=1 / cqm=0 / deadzone=21,11 / fast_pskip=1 / chroma_qp_offset=-3 / threads=16 / lookahead_threads=4 / sliced_threads=0 / nr=0 / decimate=1 / interlaced=0 / bluray_compat=0 / constrained_intra=0 / bframes=3 / b_pyramid=2 / b_adapt=2 / b_bias=0 / direct=3 / weightb=1 / open_gop=0 / weightp=2 / keyint=250 / keyint_min=25 / scenecut=40 / intra_refresh=0 / rc_lookahead=50 / rc=2pass / mbtree=1 / bitrate=2500 / ratetol=1.0 / qcomp=0.60 / qpmin=0 / qpmax=69 / qpstep=4 / cplxblur=20.0 / qblur=0.5 / vbv_maxrate=31250 / vbv_bufsize=31250 / nal_hrd=none / filler=0 / ip_ratio=1.40 / aq=3:1.00
Encoded date : UTC 2022-05-14 09:03:49
Tagged date : UTC 2022-05-14 09:03:49
Codec configuration box : avcC

Audio
ID : 2
Format : AAC LC
Format/Info : Advanced Audio Codec Low Complexity
Codec ID : mp4a-40-2
Duration : 1 h 41 min
Bit rate mode : Constant
Bit rate : 224 kb/s
Channel(s) : 2 channels
Channel layout : L R
Sampling rate : 48.0 kHz
Frame rate : 46.875 FPS (1024 SPF)
Compression mode : Lossy
Stream size : 162 MiB (8%)
Language : English
Default : Yes
Alternate group : 1
Encoded date : UTC 2022-05-14 09:03:49
Tagged date : UTC 2022-05-14 09:03:49





1 个附件 售价 大小 下载 时间

The.Diamond.Trap.1988.1080p.WEBRip.x264-RARBG.torrent 0 金币 20.01K 525 次 11天前

#1楼
发帖时间:2022-05-14 17:20:14   |   回复数:0
游客组