squallzhao
一代宗师

[更 早] [英国] [喜剧] [BD-720P] 出租车司机冒险记 Adventures.of.a.Taxi.Driver.1976.720p.BluRay.x264-GAZER 4.75GB

-->

帖子完整标题:出租车司机冒险记 Adventures.of.a.Taxi.Driver.1976.720p.BluRay.x264-GAZER 4.75GB



◎译  名 出租车司机冒险记 / 的哥冒险记 / 司机奇艳录(港)
◎片  名 Adventures of a Taxi Driver
◎年  代 1976
◎产  地 英国
◎类  别 喜剧 / 情色
◎语  言 英语
◎上映日期 1976-05-23(英国)
◎IMDb链接 https://www.imdb.com/title/tt0074094/
◎豆瓣评分 8.6/10 (1325人评价)
◎豆瓣链接 https://movie.douban.com/subject/4705150/
◎片  长 89 分钟
◎导  演 Stanley A. Long Stanley A. Long (id:1037790)
◎编  剧 Stanley A. Long Stanley A. Long (id:1037790)
◎演  员 巴瑞·埃文斯 Barry Evans (id:1087983)
      朱迪·吉森 Judy Geeson (id:1055863)
      阿德里安娜·波斯塔 Adrienne Posta (id:1136869)
      黛安娜·多丝 Diana Dors (id:1027959)
      Charles Pemberton Charles Pemberton (id:1128884)
      Stephen Lewis Stephen Lewis (id:1118916)
      安德鲁·斯考姆比 Andrew Secombe (id:1142081)
      Beatrice Shaw Beatrice Shaw (id:1143961)
      安吉拉·斯库拉 Angela Scoular (id:1146390)
      理查德·弗农 Richard Vernon (id:1159575)
      布莱恩·怀尔德 Brian Wilde (id:1165345)
      Henry McGee Henry McGee (id:1118716)
      罗伯特·林德森 Robert Lindsay (id:1116923)
      迈克尔·阿姆斯特朗 Michael Armstrong (id:1057953)
      格雷厄姆·阿什利 Graham Ashley (id:1059222)
      Anna Bergman Anna Bergman (id:1064853)
      Lee Crawford Lee Crawford (id:1076410)
      利兹·弗雷泽 Liz Fraser (id:1086073)
      Jack Haig Jack Haig (id:1096136)
      伊恩·拉文德 Ian Lavender (id:1111548)
      皮特·沃克 Pete Walker (id:1300306)
      Stanley A. Long Stanley A. Long (id:1037790)
      迈克尔·阿姆斯特朗 Michael Armstrong (id:1057953)
      Marsha Lewis Marsha Lewis (id:1289965)

◎简  介
  Joe North is a cab driver in London, something that gives him many opportunities to have sex.

Video
ID : 1
Format : AVC
Format/Info : Advanced Video Codec
Format profile : [email protected]
Format settings : CABAC / 9 Ref Frames
Format settings, CABAC : Yes
Format settings, Reference frames : 9 frames
Codec ID : V_MPEG4/ISO/AVC
Duration : 1 h 29 min
Bit rate : 6 716 kb/s
Width : 1 280 pixels
Height : 694 pixels
Display aspect ratio : 1.85:1
Frame rate mode : Constant
Frame rate : 23.976 (24000/1001/189150) FPS
Color space : YUV
Chroma subsampling : 4:2:0
Bit depth : 8 bits
Scan type : Progressive
Bits/(Pixel*Frame) : 0.315
Stream size : 4.20 GiB (88%)
Writing library : x264 core 164 r3094 bfc87b7
Encoding settings : cabac=1 / ref=9 / deblock=1:-3:-3 / analyse=0x3:0x133 / me=umh / subme=10 / psy=1 / psy_rd=1.20:0.00 / mixed_ref=1 / me_range=24 / chroma_me=1 / trellis=2 / 8x8dct=1 / cqm=0 / deadzone=21,11 / fast_pskip=0 / chroma_qp_offset=-2 / threads=22 / lookahead_threads=3 / sliced_threads=0 / nr=0 / decimate=0 / interlaced=0 / bluray_compat=0 / constrained_intra=0 / bframes=8 / b_pyramid=2 / b_adapt=2 / b_bias=0 / direct=3 / weightb=1 / open_gop=0 / weightp=2 / keyint=250 / keyint_min=23 / scenecut=40 / intra_refresh=0 / rc_lookahead=60 / rc=crf / mbtree=1 / crf=23.5 / qcomp=0.60 / qpmin=0 / qpmax=69 / qpstep=4 / ip_ratio=1.40 / aq=3:0.90
Default : Yes
Forced : No
Color range : Limited
Matrix coefficients : BT.709

Audio #1
ID : 2
Format : FLAC
Format/Info : Free Lossless Audio Codec
Codec ID : A_FLAC
Duration : 1 h 29 min
Bit rate mode : Variable
Bit rate : 625 kb/s
Channel(s) : 1 channel
Channel layout : C
Sampling rate : 48.0 kHz
Frame rate : 11.719 FPS (4096 SPF)
Bit depth : 24 bits
Compression mode : Lossless
Stream size : 401 MiB (8%)
Writing library : libFLAC 1.3.3 (UTC 2019-08-04)
Language : English
Default : Yes
Forced : No

Audio #2
ID : 3
Format : AAC LC
Format/Info : Advanced Audio Codec Low Complexity
Codec ID : A_AAC-2
Duration : 1 h 29 min
Bit rate : 77.9 kb/s
Channel(s) : 1 channel
Channel layout : C
Sampling rate : 48.0 kHz
Frame rate : 46.875 FPS (1024 SPF)
Compression mode : Lossy
Delay relative to video : 20 ms
Stream size : 49.9 MiB (1%)
Title : Commentary
Language : English
Default : No
Forced : No

Audio #3
ID : 4
Format : AAC LC
Format/Info : Advanced Audio Codec Low Complexity
Codec ID : A_AAC-2
Duration : 1 h 29 min
Bit rate : 153 kb/s
Channel(s) : 2 channels
Channel layout : L R
Sampling rate : 48.0 kHz
Frame rate : 46.875 FPS (1024 SPF)
Compression mode : Lossy
Delay relative to video : 20 ms
Stream size : 98.1 MiB (2%)
Title : Commentary
Language : English
Default : No
Forced : No

Text
ID : 5
Format : PGS
Muxing mode : zlib
Codec ID : S_HDMV/PGS
Codec ID/Info : Picture based subtitle format used on BDs/HD-DVDs
Duration : 1 h 29 min
Bit rate : 57.4 kb/s
Count of elements : 3136
Stream size : 36.7 MiB (1%)
Title : SDH
Language : English
Default : No
Forced : No

Menu
00:00:00.000 : Chapter 01
00:00:10.385 : Chapter 02
00:08:46.359 : Chapter 03
00:16:59.227 : Chapter 04
00:26:11.111 : Chapter 05
00:34:46.001 : Chapter 06
00:44:41.304 : Chapter 07
00:52:19.803 : Chapter 08
01:03:42.736 : Chapter 09
01:12:12.078 : Chapter 10
01:22:01.750 : Chapter 11
01:29:34.119 : Chapter 12





1 个附件 售价 大小 下载 时间

Adventures.of.a.Taxi.Driver.1976.720p.BluRay.x264-GAZER.torrent 0 金币 24.52K 700 次 11天前

#1楼
发帖时间:2022-05-14 17:09:30   |   回复数:0
游客组