topgood
武林盟主

[2021] [日本] [剧情] [BD-4K] 机动战士高达 闪光的哈萨维 Mobile.Suit.Gundam.Hathaway.2021.JAPANESE.2160p.UHD.BluRay.X265.10

-->

帖子完整标题:机动战士高达 闪光的哈萨维 Mobile.Suit.Gundam.Hathaway.2021.JAPANESE.2160p.UHD.BluRay.X265.10bit.HDR.TrueHD.7.1.Atmos-JRP 12.82GB



◎译  名 机动战士高达 闪光的哈萨维 / Mobile Suit Gundam Hathaway
◎片  名 機動戦士ガンダム 閃光のハサウェイ
◎年  代 2021
◎产  地 日本
◎类  别 剧情 / 科幻 / 动画 / 战争
◎语  言 日语
◎上映日期 2021-06-11(日本)
◎IMDb链接 https://www.imdb.com/title/tt13288678/
◎豆瓣评分 8.5/10 (10412人评价)
◎豆瓣链接 https://movie.douban.com/subject/30201133/
◎片  长 98分钟
◎导  演 村濑修功 Shukō Murase (id:1331392)
◎编  剧 富野由悠季 Yoshiyuki Tomino (id:1042523)
      武藤康之 Mutou Yasuyuki (id:1422259)
◎演  员 小野贤章 Kensho Ono (id:1323336)
      上田丽奈 Reina Ueda (id:1351541)
      诹访部顺一 Junichi Suwabe (id:1003577)
      齐藤壮马 Soma Saito (id:1341567)
      津田健次郎 Kenjir? Tsuda (id:1194806)
      石川由依 Yui Ishikawa (id:1329107)
      落合福嗣 Fukushi Ochiai (id:1387131)
      武内骏辅 Shunsuke Takeuchi (id:1376595)
      早见沙织 Saori Hayami (id:1020667)
      松冈美里 Misato Matsuoka (id:1429860)
      泽城千春 Chiharu Sawashiro (id:1397672)
      天崎滉平 K?hei Amasaki (id:1402069)
      绵贯龙之介 Watanuki Ryuunosuke (id:1423079)
      种崎敦美 Atsumi Tanezaki (id:1325812)
      新祐树 Shin Yuuki (id:1399251)
      鹫见昂大 Sumi Takahiro (id:1443287)
      福西胜也 Fukunishi Masaya (id:1391016)
      木野日菜 Hina Kino (id:1376395)
      地藏堂武大 Takehiro Jizoudou (id:1443607)
      川上洋平 Yoohei Kawakami (id:1380681)
      山寺宏一 K?ichi Yamadera (id:1019299)
      佐佐木望 Nozomu Sasaki (id:1008192)
      川村万梨阿 Maria Kawamura (id:1043324)
      古谷彻 T?ru Furuya (id:1025560)
      泽野弘之 Hiroyuki Sawano (id:1326992)
      今井大介 Imai Daisuke (id:1416469)
      松尾衡 Kou Matsuo (id:1321528)
      原英和 Hara Hidekazu (id:1432133)
      米田光宏 Yoneda Mitsuhiro (id:1431660)
      渡边信一郎 Shinichir? Watanabe (id:1274349)
      恩田尚之 Onda Naoyuki (id:1348691)
      清水爱 Ai Shimizu (id:1275213)

◎标  签 高达 / 日本 / Gundam / 科幻 / 剧场版 / 日本动画 / 战争 / 动画

◎简  介
  本作以哈萨维为主角,采取三部曲的形式,讲述“逆袭的夏亚”之后的故事。

Video
ID : 1
Format : HEVC
Format/Info : High Efficiency Video Coding
Format profile : Main [email protected]@High
HDR format : SMPTE ST 2086, HDR10 compatible
Codec ID : V_MPEGH/ISO/HEVC
Duration : 1 h 35 min
Bit rate : 9 399 kb/s
Width : 3 840 pixels
Height : 2 160 pixels
Display aspect ratio : 16:9
Frame rate mode : Constant
Frame rate : 23.976 (24000/1001/189150) FPS
Color space : YUV
Chroma subsampling : 4:2:0 (Type 2)
Bit depth : 10 bits
Bits/(Pixel*Frame) : 0.047
Stream size : 6.28 GiB (49%)
Writing library : x265 3.5f0c1022b6:[Linux][GCC 9.3.0][64 bit] 10bit
Encoding settings : cpuid=1111039 / frame-threads=3 / wpp / no-pmode / no-pme / no-psnr / no-ssim / log-level=2 / input-csp=1 / input-res=3840x2160 / interlace=0 / total-frames=0 / level-idc=51 / high-tier=1 / uhd-bd=0 / ref=4 / no-allow-non-conformance / repeat-headers / annexb / aud / no-eob / no-eos / hrd / info / hash=0 / no-temporal-layers / no-open-gop / min-keyint=23 / keyint=250 / gop-lookahead=0 / bframes=4 / b-adapt=2 / b-pyramid / bframe-bias=0 / rc-lookahead=25 / lookahead-slices=4 / scenecut=40 / no-hist-scenecut / radl=0 / no-splice / no-intra-refresh / ctu=64 / min-cu-size=8 / rect / no-amp / max-tu-size=32 / tu-inter-depth=1 / tu-intra-depth=1 / limit-tu=0 / rdoq-level=2 / dynamic-rd=0.00 / no-ssim-rd / signhide / no-tskip / nr-intra=0 / nr-inter=0 / no-constrained-intra / no-strong-intra-smoothing / max-merge=3 / limit-refs=3 / limit-modes / me=3 / subme=3 / merange=57 / temporal-mvp / no-frame-dup / no-hme / weightp / no-weightb / no-analyze-src-pics / deblock=1:1 / no-sao / no-sao-non-deblock / rd=4 / selective-sao=0 / no-early-skip / rskip / no-fast-intra / no-tskip-fast / no-cu-lossless / no-b-intra / no-splitrd-skip / rdpenalty=0 / psy-rd=0.80 / psy-rdoq=1.00 / no-rd-refine / no-lossless / cbqpoffs=0 / crqpoffs=0 / rc=crf / crf=16.0 / qcomp=0.60 / qpstep=4 / stats-write=0 / stats-read=0 / vbv-maxrate=160000 / vbv-bufsize=160000 / vbv-init=0.9 / min-vbv-fullness=50.0 / max-vbv-fullness=80.0 / crf-max=0.0 / crf-min=0.0 / ipratio=1.40 / pbratio=1.30 / aq-mode=3 / aq-strength=1.00 / cutree / zone-count=0 / no-strict-cbr / qg-size=32 / no-rc-grain / qpmax=69 / qpmin=0 / no-const-vbv / sar=1 / overscan=0 / videoformat=5 / range=0 / colorprim=9 / transfer=16 / colormatrix=9 / chromaloc=1 / chromaloc-top=2 / chromaloc-bottom=2 / display-window=0 / master-display=G(8500,39850)B(6550,2300)R(35400,14600)WP(15635,16450)L(10000000,50) / cll=464,139 / min-luma=0 / max-luma=1023 / log2-max-poc-lsb=8 / vui-timing-info / vui-hrd-info / slices=1 / no-opt-qp-pps / no-opt-ref-list-length-pps / no-multi-pass-opt-rps / scenecut-bias=0.05 / hist-threshold=0.03 / no-opt-cu-delta-qp / no-aq-motion / hdr10 / hdr10-opt / no-dhdr10-opt / no-idr-recovery-sei / analysis-reuse-level=0 / analysis-save-reuse-level=0 / analysis-load-reuse-level=0 / scale-factor=0 / refine-intra=0 / refine-inter=0 / refine-mv=1 / refine-ctu-distortion=0 / no-limit-sao / ctu-info=0 / no-lowpass-dct / refine-analysis-type=0 / copy-pic=1 / max-ausize-factor=1.0 / no-dynamic-refine / no-single-sei / no-hevc-aq / no-svt / no-field / qp-adaptation-range=1.00 / scenecut-aware-qp=0conformance-window-offsets / right=0 / bottom=0 / decoder-max-rate=0 / no-vbv-live-multi-pass
Language : Japanese
Default : Yes
Forced : No
Color range : Limited
Color primaries : BT.2020
Transfer characteristics : PQ
Matrix coefficients : BT.2020 non-constant
Mastering display color primaries : BT.2020
Mastering display luminance : min: 0.0050 cd/m2, max: 1000 cd/m2
Maximum Content Light Level : 464 cd/m2
Maximum Frame-Average Light Level : 139 cd/m2

Audio #1
ID : 2
ID in the original source medium : 4352 (0x1100)
Format : MLP FBA 16-ch
Format/Info : Meridian Lossless Packing FBA with 16-channel presentation
Commercial name : Dolby TrueHD with Dolby Atmos
Codec ID : A_TRUEHD
Duration : 1 h 35 min
Bit rate mode : Variable
Bit rate : 8 202 kb/s
Maximum bit rate : 14.5 Mb/s
Channel(s) : 8 channels
Channel layout : L R C LFE Ls Rs Lb Rb
Sampling rate : 48.0 kHz
Frame rate : 1 200.000 FPS (40 SPF)
Bit depth : 24 bits
Compression mode : Lossless
Stream size : 5.48 GiB (43%)
Title : Dolby Atmos 7.1 (TrueHD)
Language : Japanese
Default : Yes
Forced : No
Original source medium : Blu-ray
Number of dynamic objects : 15
Bed channel count : 1 channel
Bed channel configuration : LFE

Audio #2
ID : 3
ID in the original source medium : 4352 (0x1100)
Format : AC-3
Format/Info : Audio Coding 3
Commercial name : Dolby Digital
Codec ID : A_AC3
Duration : 1 h 35 min
Bit rate mode : Constant
Bit rate : 640 kb/s
Channel(s) : 6 channels
Channel layout : L R C LFE Ls Rs
Sampling rate : 48.0 kHz
Frame rate : 31.250 FPS (1536 SPF)
Compression mode : Lossy
Stream size : 438 MiB (3%)
Title : Dolby Digital 5.1 (AC-3)
Language : Japanese
Service kind : Complete Main
Default : No
Forced : No
Original source medium : Blu-ray

Audio #3
ID : 4
Format : FLAC
Format/Info : Free Lossless Audio Codec
Codec ID : A_FLAC
Duration : 1 h 35 min
Bit rate mode : Variable
Bit rate : 657 kb/s
Channel(s) : 2 channels
Channel layout : L R
Sampling rate : 48.0 kHz
Frame rate : 11.719 FPS (4096 SPF)
Bit depth : 16 bits
Compression mode : Lossless
Stream size : 449 MiB (3%)
Title : LPCM 2.0 (FLAC)
Language : Japanese
Default : No
Forced : No

Text #1
ID : 5
Format : ASS
Codec ID : S_TEXT/ASS
Codec ID/Info : Advanced Sub Station Alpha
Duration : 1 h 33 min
Bit rate : 94 b/s
Count of elements : 1146
Compression mode : Lossless
Stream size : 64.7 KiB (0%)
Title : English Styled (BD)
Language : English
Default : Yes
Forced : No

Text #2
ID : 6
Format : UTF-8
Codec ID : S_TEXT/UTF8
Codec ID/Info : UTF-8 Plain Text
Duration : 1 h 33 min
Bit rate : 57 b/s
Count of elements : 1113
Stream size : 39.6 KiB (0%)
Title : English (BD)
Language : English
Default : No
Forced : No

Text #3
ID : 7
Format : ASS
Codec ID : S_TEXT/ASS
Codec ID/Info : Advanced Sub Station Alpha
Duration : 1 h 34 min
Bit rate : 95 b/s
Count of elements : 1160
Compression mode : Lossless
Stream size : 66.0 KiB (0%)
Title : English (Netflix)
Language : English
Default : No
Forced : No

Text #4
ID : 8
Format : ASS
Codec ID : S_TEXT/ASS
Codec ID/Info : Advanced Sub Station Alpha
Duration : 1 h 34 min
Bit rate : 99 b/s
Count of elements : 1173
Compression mode : Lossless
Stream size : 68.5 KiB (0%)
Title : German (Netflix)
Language : German
Default : No
Forced : No

Text #5
ID : 9
ID in the original source medium : 4769 (0x12A1)
Format : PGS
Muxing mode : zlib
Codec ID : S_HDMV/PGS
Codec ID/Info : Picture based subtitle format used on BDs/HD-DVDs
Duration : 1 h 34 min
Bit rate : 32.9 kb/s
Count of elements : 2088
Stream size : 22.1 MiB (0%)
Title : English PGS (BD)
Language : English
Default : No
Forced : No
Original source medium : Blu-ray

Text #6
ID : 10
ID in the original source medium : 4768 (0x12A0)
Format : PGS
Muxing mode : zlib
Codec ID : S_HDMV/PGS
Codec ID/Info : Picture based subtitle format used on BDs/HD-DVDs
Duration : 1 h 34 min
Bit rate : 32.1 kb/s
Count of elements : 2928
Stream size : 21.6 MiB (0%)
Title : Japanese PGS (BD)
Language : Japanese
Default : No
Forced : No
Original source medium : Blu-ray

Menu
00:00:00.000 : en:Chapter 01
00:06:31.849 : en:Chapter 02
00:15:55.120 : en:Chapter 03
00:17:24.835 : en:Chapter 04
00:24:24.129 : en:Chapter 05
00:29:57.670 : en:Chapter 06
00:34:54.675 : en:Chapter 07
00:38:36.522 : en:Chapter 08
00:43:35.237 : en:Chapter 09
00:48:31.867 : en:Chapter 10
00:54:51.079 : en:Chapter 11
01:04:54.098 : en:Chapter 12
01:11:23.195 : en:Chapter 13
01:14:13.991 : en:Chapter 14
01:19:20.464 : en:Chapter 15
01:26:37.483 : en:Chapter 16
01:30:55.867 : en:Chapter 17
01:35:27.722 : en:Chapter 18





1 个附件 售价 大小 下载 时间

Mobile.Suit.Gundam.Hathaway.2021.JAPANESE.2160p.UHD.BluRay.X265.10bit.HDR.TrueHD.7.1.Atmos-JRP.torrent 0 金币 16.86K 4347 次 4月前

#1楼
发帖时间:2022-01-24 08:40:10   |   回复数:0
游客组