topgood
武林盟主

[2021] [日本] [剧情] [4K-原盘] 机动战士高达 闪光的哈萨维 Mobile.Suit.Gundam.Hathaway.2021.JAPANESE.2160p.BluRay.REMUX.HEVC.

-->

帖子完整标题:机动战士高达 闪光的哈萨维 Mobile.Suit.Gundam.Hathaway.2021.JAPANESE.2160p.BluRay.REMUX.HEVC.DTS-HD.MA.TrueHD.7.1.Atmos-FGT 67.04GB



◎译  名 机动战士高达 闪光的哈萨维 / Mobile Suit Gundam Hathaway
◎片  名 機動戦士ガンダム 閃光のハサウェイ
◎年  代 2021
◎产  地 日本
◎类  别 剧情 / 科幻 / 动画 / 战争
◎语  言 日语
◎上映日期 2021-06-11(日本)
◎IMDb链接 https://www.imdb.com/title/tt13288678/
◎豆瓣评分 8.5/10 (10412人评价)
◎豆瓣链接 https://movie.douban.com/subject/30201133/
◎片  长 98分钟
◎导  演 村濑修功 Shukō Murase (id:1331392)
◎编  剧 富野由悠季 Yoshiyuki Tomino (id:1042523)
      武藤康之 Mutou Yasuyuki (id:1422259)
◎演  员 小野贤章 Kensho Ono (id:1323336)
      上田丽奈 Reina Ueda (id:1351541)
      诹访部顺一 Junichi Suwabe (id:1003577)
      齐藤壮马 Soma Saito (id:1341567)
      津田健次郎 Kenjir? Tsuda (id:1194806)
      石川由依 Yui Ishikawa (id:1329107)
      落合福嗣 Fukushi Ochiai (id:1387131)
      武内骏辅 Shunsuke Takeuchi (id:1376595)
      早见沙织 Saori Hayami (id:1020667)
      松冈美里 Misato Matsuoka (id:1429860)
      泽城千春 Chiharu Sawashiro (id:1397672)
      天崎滉平 K?hei Amasaki (id:1402069)
      绵贯龙之介 Watanuki Ryuunosuke (id:1423079)
      种崎敦美 Atsumi Tanezaki (id:1325812)
      新祐树 Shin Yuuki (id:1399251)
      鹫见昂大 Sumi Takahiro (id:1443287)
      福西胜也 Fukunishi Masaya (id:1391016)
      木野日菜 Hina Kino (id:1376395)
      地藏堂武大 Takehiro Jizoudou (id:1443607)
      川上洋平 Yoohei Kawakami (id:1380681)
      山寺宏一 K?ichi Yamadera (id:1019299)
      佐佐木望 Nozomu Sasaki (id:1008192)
      川村万梨阿 Maria Kawamura (id:1043324)
      古谷彻 T?ru Furuya (id:1025560)
      泽野弘之 Hiroyuki Sawano (id:1326992)
      今井大介 Imai Daisuke (id:1416469)
      松尾衡 Kou Matsuo (id:1321528)
      原英和 Hara Hidekazu (id:1432133)
      米田光宏 Yoneda Mitsuhiro (id:1431660)
      渡边信一郎 Shinichir? Watanabe (id:1274349)
      恩田尚之 Onda Naoyuki (id:1348691)
      清水爱 Ai Shimizu (id:1275213)

◎标  签 高达 / 日本 / Gundam / 科幻 / 剧场版 / 日本动画 / 战争 / 动画

◎简  介
  本作以哈萨维为主角,采取三部曲的形式,讲述“逆袭的夏亚”之后的故事。

Video
ID : 1
ID in the original source medium : 4113 (0x1011)
Format : HEVC
Format/Info : High Efficiency Video Coding
Format profile : Main [email protected]@High
HDR format : SMPTE ST 2086, HDR10 compatible
Codec ID : V_MPEGH/ISO/HEVC
Duration : 1 h 35 min
Bit rate : 84.5 Mb/s
Width : 3 840 pixels
Height : 2 160 pixels
Display aspect ratio : 16:9
Frame rate mode : Constant
Frame rate : 23.976 (24000/1001/189150) FPS
Color space : YUV
Chroma subsampling : 4:2:0 (Type 2)
Bit depth : 10 bits
Bits/(Pixel*Frame) : 0.425
Stream size : 56.5 GiB (84%)
Language : English
Default : No
Forced : No
Color range : Limited
Color primaries : BT.2020
Transfer characteristics : PQ
Matrix coefficients : BT.2020 non-constant
Mastering display color primaries : BT.2020
Mastering display luminance : min: 0.0050 cd/m2, max: 1000 cd/m2
Maximum Content Light Level : 464 cd/m2
Maximum Frame-Average Light Level : 139 cd/m2
Original source medium : Blu-ray

Audio #1
ID : 2
ID in the original source medium : 4352 (0x1100)
Format : MLP FBA 16-ch
Format/Info : Meridian Lossless Packing FBA with 16-channel presentation
Commercial name : Dolby TrueHD with Dolby Atmos
Codec ID : A_TRUEHD
Duration : 1 h 35 min
Bit rate mode : Variable
Bit rate : 8 202 kb/s
Maximum bit rate : 14.5 Mb/s
Channel(s) : 8 channels
Channel layout : L R C LFE Ls Rs Lb Rb
Sampling rate : 48.0 kHz
Frame rate : 1 200.000 FPS (40 SPF)
Bit depth : 24 bits
Compression mode : Lossless
Stream size : 5.48 GiB (8%)
Title : TrueHD 7.1 Atmos
Language : Japanese
Default : Yes
Forced : No
Original source medium : Blu-ray
Number of dynamic objects : 15
Bed channel count : 1 channel
Bed channel configuration : LFE

Audio #2
ID : 3
Format : DTS XLL
Format/Info : Digital Theater Systems
Commercial name : DTS-HD Master Audio
Codec ID : A_DTS
Duration : 1 h 35 min
Bit rate mode : Variable
Bit rate : 4 531 kb/s
Channel(s) : 8 channels
Channel layout : C L R LFE Lb Rb Lss Rss
Sampling rate : 48.0 kHz
Frame rate : 93.750 FPS (512 SPF)
Bit depth : 24 bits
Compression mode : Lossless
Stream size : 3.03 GiB (5%)
Title : DTS-HD MA 7.1
Language : Japanese
Default : No
Forced : No

Audio #3
ID : 4
ID in the original source medium : 4352 (0x1100)
Format : AC-3
Format/Info : Audio Coding 3
Commercial name : Dolby Digital
Codec ID : A_AC3
Duration : 1 h 35 min
Bit rate mode : Constant
Bit rate : 640 kb/s
Channel(s) : 6 channels
Channel layout : L R C LFE Ls Rs
Sampling rate : 48.0 kHz
Frame rate : 31.250 FPS (1536 SPF)
Compression mode : Lossy
Stream size : 438 MiB (1%)
Title : DD 5.1
Language : Japanese
Service kind : Complete Main
Default : No
Forced : No
Original source medium : Blu-ray

Audio #4
ID : 5
ID in the original source medium : 4353 (0x1101)
Format : PCM
Format settings : Little / Signed
Codec ID : A_PCM/INT/LIT
Duration : 1 h 35 min
Bit rate mode : Constant
Bit rate : 2 304 kb/s
Channel(s) : 2 channels
Sampling rate : 48.0 kHz
Frame rate : 30.000 FPS (1600 SPF)
Bit depth : 24 bits
Stream size : 1.54 GiB (2%)
Title : LPCM2 .0
Language : Japanese
Default : No
Forced : No
Original source medium : Blu-ray

Text #1
ID : 6
Format : UTF-8
Codec ID : S_TEXT/UTF8
Codec ID/Info : UTF-8 Plain Text
Duration : 1 h 33 min
Bit rate : 51 b/s
Count of elements : 1038
Stream size : 35.4 KiB (0%)
Language : English
Default : Yes
Forced : No

Text #2
ID : 7
ID in the original source medium : 4769 (0x12A1)
Format : PGS
Muxing mode : zlib
Codec ID : S_HDMV/PGS
Codec ID/Info : Picture based subtitle format used on BDs/HD-DVDs
Duration : 1 h 34 min
Bit rate : 32.9 kb/s
Count of elements : 2088
Stream size : 22.1 MiB (0%)
Language : English
Default : No
Forced : No
Original source medium : Blu-ray

Text #3
ID : 8
ID in the original source medium : 4768 (0x12A0)
Format : PGS
Muxing mode : zlib
Codec ID : S_HDMV/PGS
Codec ID/Info : Picture based subtitle format used on BDs/HD-DVDs
Duration : 1 h 34 min
Bit rate : 32.1 kb/s
Count of elements : 2928
Stream size : 21.6 MiB (0%)
Language : Japanese
Default : No
Forced : No
Original source medium : Blu-ray

Menu
00:00:00.000 : en:Chapter 01
00:06:31.849 : en:Chapter 02
00:15:55.120 : en:Chapter 03
00:17:24.835 : en:Chapter 04
00:24:24.129 : en:Chapter 05
00:29:57.670 : en:Chapter 06
00:34:54.675 : en:Chapter 07
00:38:36.522 : en:Chapter 08
00:43:35.237 : en:Chapter 09
00:48:31.867 : en:Chapter 10
00:54:51.079 : en:Chapter 11
01:04:54.098 : en:Chapter 12
01:11:23.195 : en:Chapter 13
01:14:13.991 : en:Chapter 14
01:19:20.464 : en:Chapter 15
01:26:37.483 : en:Chapter 16
01:30:55.867 : en:Chapter 17
01:35:27.722 : en:Chapter 18





1 个附件 售价 大小 下载 时间

Mobile.Suit.Gundam.Hathaway.2021.JAPANESE.2160p.BluRay.REMUX.HEVC.DTS-HD.MA.TrueHD.7.1.Atmos-FGT.torrent 0 金币 84.52K 1379 次 4月前

#1楼
发帖时间:2022-01-24 08:36:32   |   回复数:0
游客组