topgood
武林盟主

[更 早] [美国] [剧情] [BD-1080P] 梦醒情未了 Dreams.Dont.Die.1982.1080p.BluRay.x264.AAC2.0-HANDJOB 7.56GB

-->

帖子完整标题:梦醒情未了 Dreams.Dont.Die.1982.1080p.BluRay.x264.AAC2.0-HANDJOB 7.56GB



◎译  名 梦醒情未了
◎片  名 Dreams Don't Die
◎年  代 1982
◎产  地 美国
◎类  别 剧情 / 惊悚
◎语  言 英语
◎上映日期 1982
◎IMDb链接 https://www.imdb.com/title/tt0083854/
◎豆瓣链接 https://movie.douban.com/subject/5050452/
◎片  长 100分钟
◎导  演 罗杰·扬 Roger Young (id:1045520)
◎演  员 艾克·艾森曼 Ike Eisenmann (id:1090869)
      翠尼·阿瓦拉多 Trini Alvarado (id:1014026)
      保罗·温菲尔德 Paul Winfield (id:1019128)
      詹姆斯·布罗德里克 James Broderick (id:1032225)
      乔治·科 George Coe (id:1280959)
      马克·戈登 Mark Gordon (id:1285191)
      Judi West Judi West (id:1162513)
      Israel Juarbe Israel Juarbe (id:1112923)
      Benjamin Hendrickson Benjamin Hendrickson (id:1094565)
      Baxter Harris Baxter Harris (id:1093253)
      阿尔玛·奎尔沃 Alma Cuervo (id:1077049)
      Philip Mandelker Philip Mandelker (id:1046464)
      布拉德·费德尔 Brad Fiedel (id:1032622)
      Tony Imi Tony Imi (id:1003540)
      Julie Hughes Julie Hughes (id:1287112)
      Barry Moss Barry Moss (id:1292600)

Video
ID : 1
Format : AVC
Format/Info : Advanced Video Codec
Format profile : [email protected]
Format settings : CABAC / 5 Ref Frames
Format settings, CABAC : Yes
Format settings, Reference frames : 5 frames
Codec ID : V_MPEG4/ISO/AVC
Duration : 1 h 34 min
Bit rate : 11.2 Mb/s
Width : 1 440 pixels
Height : 1 080 pixels
Display aspect ratio : 4:3
Frame rate mode : Constant
Frame rate : 24.000 FPS
Color space : YUV
Chroma subsampling : 4:2:0
Bit depth : 8 bits
Scan type : Progressive
Bits/(Pixel*Frame) : 0.300
Stream size : 7.41 GiB (98%)
Writing library : x264 core 157 r2935 545de2f
Encoding settings : cabac=1 / ref=5 / deblock=1:-3:-3 / analyse=0x3:0x133 / me=umh / subme=10 / psy=1 / psy_rd=1.00:0.00 / mixed_ref=1 / me_range=32 / chroma_me=1 / trellis=2 / 8x8dct=1 / cqm=0 / deadzone=21,11 / fast_pskip=0 / chroma_qp_offset=-2 / threads=12 / lookahead_threads=3 / sliced_threads=0 / nr=0 / decimate=0 / interlaced=0 / bluray_compat=0 / constrained_intra=0 / bframes=16 / b_pyramid=2 / b_adapt=2 / b_bias=0 / direct=3 / weightb=1 / open_gop=0 / weightp=1 / keyint=240 / keyint_min=24 / scenecut=40 / intra_refresh=0 / rc_lookahead=60 / rc=crf / mbtree=0 / crf=21.8 / qcomp=0.60 / qpmin=0 / qpmax=69 / qpstep=4 / vbv_maxrate=62500 / vbv_bufsize=78125 / crf_max=0.0 / nal_hrd=none / filler=0 / ip_ratio=1.40 / pb_ratio=1.30 / aq=1:0.70
Default : Yes
Forced : No
Color range : Limited
Color primaries : BT.709
Transfer characteristics : BT.709
Matrix coefficients : BT.709

Audio #1
ID : 2
Format : AAC LC
Format/Info : Advanced Audio Codec Low Complexity
Codec ID : A_AAC-2
Duration : 1 h 34 min
Bit rate : 150 kb/s
Channel(s) : 2 channels
Channel layout : L R
Sampling rate : 48.0 kHz
Frame rate : 46.875 FPS (1024 SPF)
Compression mode : Lossy
Stream size : 101 MiB (1%)
Language : English
Default : Yes
Forced : No

Audio #2
ID : 3
Format : AAC LC
Format/Info : Advanced Audio Codec Low Complexity
Codec ID : A_AAC-2
Duration : 1 h 34 min
Bit rate : 76.9 kb/s
Channel(s) : 2 channels
Channel layout : L R
Sampling rate : 48.0 kHz
Frame rate : 46.875 FPS (1024 SPF)
Compression mode : Lossy
Stream size : 52.1 MiB (1%)
Title : Commentary with Dino Proserpio and Jonathan Hertzberg
Language : English
Default : No
Forced : No

Text #1
ID : 4
Format : UTF-8
Codec ID : S_TEXT/UTF8
Codec ID/Info : UTF-8 Plain Text
Duration : 1 h 31 min
Bit rate : 49 b/s
Count of elements : 1107
Stream size : 33.1 KiB (0%)
Language : English
Default : No
Forced : No

Text #2
ID : 5
Format : UTF-8
Codec ID : S_TEXT/UTF8
Codec ID/Info : UTF-8 Plain Text
Duration : 1 h 34 min
Bit rate : 55 b/s
Count of elements : 1325
Stream size : 38.3 KiB (0%)
Title : SDH
Language : English
Default : No
Forced : No

Menu
00:00:00.000 : :Chapter 1
00:17:56.500 : :Chapter 2
00:31:38.000 : :Chapter 3
00:45:14.375 : :Chapter 4
00:55:14.375 : :Chapter 5
01:12:58.375 : :Chapter 6
01:26:59.917 : :Chapter 7
01:33:42.250 : :Chapter 8





1 个附件 售价 大小 下载 时间

Dreams.Dont.Die.1982.1080p.BluRay.x264.AAC2.0-HANDJOB.torrent 0 金币 19.53K 686 次 4月前

#1楼
发帖时间:2022-01-24 08:27:59   |   回复数:0
游客组