topgood
武林盟主

[更 早] [美国] [其它] [BD-1080P] 胡桃夹子大电影 Nutcracker.The.Motion.Picture.1986.1080p.BluRay.x264.FLAC.2.0-HANDJOB 6.

-->

帖子完整标题:胡桃夹子大电影 Nutcracker.The.Motion.Picture.1986.1080p.BluRay.x264.FLAC.2.0-HANDJOB 6.63GB



◎译  名 胡桃夹子大电影
◎片  名 Nutcracker: The Motion Picture
◎年  代 1986
◎产  地 美国
◎类  别 音乐 / 家庭 / 奇幻
◎语  言 英语
◎上映日期 1986-11-26(美国)
◎IMDb链接 https://www.imdb.com/title/tt0091658/
◎豆瓣链接 https://movie.douban.com/subject/3723199/
◎片  长 USA: 89 分钟
◎导  演 卡罗尔·巴拉德 Carroll Ballard (id:1028168)
◎编  剧 莫里斯·森达克 Maurice Sendak (id:1018477)
      E·T·A·霍夫曼 E.T.A. Hoffmann (id:1008259)
◎演  员  Vanessa Sharp (id:1235435)
      朱丽·哈里斯 Julie Harris (id:1036658)
      威拉德·卡罗尔 Willard Carroll (id:1280178)
      Thomas L. Wilhite Thomas L. Wilhite (id:1052436)
      Peter Locke Peter Locke (id:1290215)
      Donald Kushner Donald Kushner (id:1289145)
      彼得·伊里奇·柴可夫斯基 Pyotr Ilyich Tchaikovsky (id:1048313)
      史蒂芬·H·布鲁姆 Stephen H. Burum (id:1037457)
      John Nutt John Nutt (id:1293336)
      莫里斯·森达克 Maurice Sendak (id:1018477)
      莫里斯·森达克 Maurice Sendak (id:1018477)
      理查德·斯奈尔 Richard Snell (id:1154637)
      朱迪·埃利希 Jodi Ehrlich (id:1283053)
      尤金·马佐拉 Eugene Mazzola (id:1033126)

◎简  介
  The colorful holiday classic is finally brought to the big screen, designed by famed children's story author and artist Maurice Sendak, and written for the first time to be as close as possible to the original story. A lavish, exciting and heart-warming celebration of dance, of music, and of life. Based upon the Pacific Northwest Ballet's original production.

Video
ID : 1
Format : AVC
Format/Info : Advanced Video Codec
Format profile : [email protected]
Format settings : CABAC / 4 Ref Frames
Format settings, CABAC : Yes
Format settings, Reference frames : 4 frames
Codec ID : V_MPEG4/ISO/AVC
Duration : 1 h 25 min
Bit rate : 10.5 Mb/s
Width : 1 920 pixels
Height : 1 040 pixels
Display aspect ratio : 1.85:1
Frame rate mode : Constant
Frame rate : 23.976 (24000/1001/189150) FPS
Color space : YUV
Chroma subsampling : 4:2:0
Bit depth : 8 bits
Scan type : Progressive
Bits/(Pixel*Frame) : 0.219
Stream size : 6.25 GiB (94%)
Writing library : x264 core 157 r2935 545de2f
Encoding settings : cabac=1 / ref=4 / deblock=1:-3:-3 / analyse=0x3:0x133 / me=umh / subme=10 / psy=1 / psy_rd=1.00:0.00 / mixed_ref=1 / me_range=32 / chroma_me=1 / trellis=2 / 8x8dct=1 / cqm=0 / deadzone=21,11 / fast_pskip=0 / chroma_qp_offset=-2 / threads=18 / lookahead_threads=4 / sliced_threads=0 / nr=0 / decimate=0 / interlaced=0 / bluray_compat=0 / constrained_intra=0 / bframes=16 / b_pyramid=2 / b_adapt=2 / b_bias=0 / direct=3 / weightb=1 / open_gop=0 / weightp=1 / keyint=240 / keyint_min=24 / scenecut=40 / intra_refresh=0 / rc_lookahead=60 / rc=crf / mbtree=0 / crf=21.8 / qcomp=0.60 / qpmin=0 / qpmax=69 / qpstep=4 / vbv_maxrate=62500 / vbv_bufsize=78125 / crf_max=0.0 / nal_hrd=none / filler=0 / ip_ratio=1.40 / pb_ratio=1.30 / aq=2:1.00
Default : Yes
Forced : No
Color range : Limited
Color primaries : BT.709
Transfer characteristics : BT.709
Matrix coefficients : BT.709

Audio
ID : 2
Format : FLAC
Format/Info : Free Lossless Audio Codec
Codec ID : A_FLAC
Duration : 1 h 25 min
Bit rate mode : Variable
Bit rate : 633 kb/s
Channel(s) : 2 channels
Sampling rate : 48.0 kHz
Frame rate : 11.719 FPS (4096 SPF)
Bit depth : 16 bits
Compression mode : Lossless
Stream size : 386 MiB (6%)
Writing library : libFLAC 1.2.1 (UTC 2007-09-17)
Language : English
Default : Yes
Forced : No

Text
ID : 3
Format : UTF-8
Codec ID : S_TEXT/UTF8
Codec ID/Info : UTF-8 Plain Text
Duration : 48 min 11 s
Bit rate : 9 b/s
Count of elements : 69
Stream size : 3.33 KiB (0%)
Language : English
Default : No
Forced : No





1 个附件 售价 大小 下载 时间

Nutcracker.The.Motion.Picture.1986.1080p.BluRay.x264.FLAC.2.0-HANDJOB.torrent 0 金币 17.25K 1162 次 4月前

#1楼
发帖时间:2022-01-24 08:25:21   |   回复数:1
JYLin26
一派掌门
Thanks
4月前 #2楼
游客组