topgood
武林盟主

[更 早] [美国] [剧情] [BD-1080P] 俘虏 The.Capture.1950.1080p.BluRay.x264.FLAC.2.0-MonteDiaz 8.28GB

-->

帖子完整标题:俘虏 The.Capture.1950.1080p.BluRay.x264.FLAC.2.0-MonteDiaz 8.28GB



◎译  名 俘虏
◎片  名 The Capture
◎年  代 1950
◎产  地 美国
◎类  别 剧情
◎语  言 英语
◎上映日期 1950-04-08
◎IMDb链接 https://www.imdb.com/title/tt0042313/
◎豆瓣链接 https://movie.douban.com/subject/3586857/
◎片  长 91 分钟
◎导  演 约翰·斯特奇斯 John Sturges (id:1016714)
◎编  剧 尼文·布施 Niven Busch (id:1045776)
◎演  员 特雷莎·怀特 Teresa Wright (id:1040774)
      维克托·乔里 Victor Jory (id:1107018)
      刘·艾尔斯 Lew Ayres (id:1016707)
      阿尔贝托·莫林 Alberto Morin (id:1129632)
      Charles Morton Charles Morton (id:1132832)
      彼得·奥尔蒂斯 Peter Ortiz (id:1135303)
      Paul Marion Paul Marion (id:1124244)
      维托·斯科蒂 Vito Scotti (id:1140507)
      查克·罗伯森 Chuck Roberson (id:1141110)
      Edwin Rand Edwin Rand (id:1142297)
      Felipe Turich Felipe Turich (id:1149538)
      Harry J. Vejar Harry J. Vejar (id:1156390)
      Rosa Turich Rosa Turich (id:1158661)
      Jacqueline White Jacqueline White (id:1164402)
      Milton Parsons Milton Parsons (id:1137136)
      蒂娜·梅纳德 Tina Menard (id:1124043)
      Frank Matts Frank Matts (id:1116954)
      凯·李 Kay Lee (id:1028656)
      邓肯·伦纳多 Duncan Renaldo (id:1048304)
      威廉·贝克韦尔 William Bakewell (id:1058899)
      Bob Burrows Bob Burrows (id:1070323)
      Paul Fierro Paul Fierro (id:1083479)
      Rico De Montez Rico De Montez (id:1090892)
      Gil Herman Gil Herman (id:1099527)
      亚历克斯·格里 Alex Gerry (id:1101713)
      吉米·亨特 Jimmy Hunt (id:1106544)
      小鲁道夫·奥约斯 Rodolfo Hoyos Jr. (id:1098600)
      Eddie Le Baron Eddie Le Baron (id:1108237)
      Tommy Lee Tommy Lee (id:1112920)
      巴里·凯利 Barry Kelley (id:1113991)
      尼文·布施 Niven Busch (id:1045776)
      Edward Donahue Edward Donahue (id:1044804)
      丹尼尔·艾姆菲斯特洛夫 Daniele Amfitheatrof (id:1042222)
      爱德华·克龙耶格尔 Edward Cronjager (id:1003763)
      小约翰·麦卡西 John McCarthy Jr. (id:1291449)
      威廉·弗兰纳里 William Flannery (id:1043728)
      查尔斯·S·汤普森 Charles S. Thompson (id:1299171)
      玛丽·威尔斯 Mary Wills (id:1011234)
      Bob Mark Bob Mark (id:1124671)
      Louise Landmier Louise Landmier (id:1107885)
      Howard Smit Howard Smit (id:1160565)

Video
ID : 1
Format : AVC
Format/Info : Advanced Video Codec
Format profile : [email protected]
Format settings : CABAC / 4 Ref Frames
Format settings, CABAC : Yes
Format settings, Reference frames : 4 frames
Codec ID : V_MPEG4/ISO/AVC
Duration : 1 h 30 min
Bit rate : 12.5 Mb/s
Width : 1 484 pixels
Height : 1 080 pixels
Display aspect ratio : 1.374
Frame rate mode : Constant
Frame rate : 23.976 (24000/1001/189150) FPS
Color space : YUV
Chroma subsampling : 4:2:0
Bit depth : 8 bits
Scan type : Progressive
Bits/(Pixel*Frame) : 0.325
Stream size : 7.88 GiB (95%)
Writing library : x264 core 157 r2935 545de2f
Encoding settings : cabac=1 / ref=3 / deblock=1:0:0 / analyse=0x1:0x111 / me=hex / subme=7 / psy=1 / psy_rd=1.00:0.00 / mixed_ref=1 / me_range=16 / chroma_me=1 / trellis=1 / 8x8dct=0 / cqm=0 / deadzone=21,11 / fast_pskip=1 / chroma_qp_offset=-2 / threads=6 / lookahead_threads=1 / sliced_threads=0 / nr=0 / decimate=1 / interlaced=0 / bluray_compat=0 / constrained_intra=0 / bframes=3 / b_pyramid=2 / b_adapt=1 / b_bias=0 / direct=1 / weightb=1 / open_gop=0 / weightp=2 / keyint=240 / keyint_min=24 / scenecut=40 / intra_refresh=0 / rc_lookahead=40 / rc=abr / mbtree=1 / bitrate=12500 / ratetol=1.0 / qcomp=0.60 / qpmin=0 / qpmax=69 / qpstep=4 / ip_ratio=1.40 / aq=1:1.00
Default : Yes
Forced : No
Color range : Limited
Color primaries : BT.709
Transfer characteristics : BT.709
Matrix coefficients : BT.709

Audio
ID : 2
Format : FLAC
Format/Info : Free Lossless Audio Codec
Codec ID : A_FLAC
Duration : 1 h 30 min
Bit rate mode : Variable
Bit rate : 607 kb/s
Channel(s) : 2 channels
Channel layout : L R
Sampling rate : 48.0 kHz
Frame rate : 11.719 FPS (4096 SPF)
Bit depth : 24 bits
Compression mode : Lossless
Stream size : 392 MiB (5%)
Title : FLAC Audio / 2.0 / 48 kHz / 607 kbps / 24-bit
Language : English
Default : Yes
Forced : No

Text #1
ID : 3
Format : PGS
Muxing mode : zlib
Codec ID : S_HDMV/PGS
Codec ID/Info : Picture based subtitle format used on BDs/HD-DVDs
Duration : 1 h 29 min
Bit rate : 31.5 kb/s
Count of elements : 1899
Stream size : 20.3 MiB (0%)
Title : English
Language : English
Default : No
Forced : No

Text #2
ID : 4
Format : UTF-8
Codec ID : S_TEXT/UTF8
Codec ID/Info : UTF-8 Plain Text
Duration : 1 h 25 min
Bit rate : 72 b/s
Count of elements : 1322
Stream size : 45.5 KiB (0%)
Language : English
Default : Yes
Forced : No

Text #3
ID : 5
Format : UTF-8
Codec ID : S_TEXT/UTF8
Codec ID/Info : UTF-8 Plain Text
Duration : 1 h 29 min
Bit rate : 76 b/s
Count of elements : 1521
Stream size : 50.4 KiB (0%)
Title : SDH
Language : English
Default : No
Forced : No





1 个附件 售价 大小 下载 时间

The.Capture.1950.1080p.BluRay.x264.FLAC.2.0-MonteDiaz.torrent 0 金币 21.34K 399 次 4月前

#1楼
发帖时间:2022-01-24 08:23:30   |   回复数:0
游客组