topgood
武林盟主

[更 早] [其它] [剧情] [BD-1080P] 家宴 The.Celebration.1998.DANISH.1080p.BluRay.x264.FLAC.1.0-HANDJOB 9.94GB

-->

帖子完整标题:家宴 The.Celebration.1998.DANISH.1080p.BluRay.x264.FLAC.1.0-HANDJOB 9.94GB



◎译  名 家宴 / 家变!(港) / 那一个晚上(台) / 家族庆典 / 家庭聚会 / The Celebration
◎片  名 Festen
◎年  代 1998
◎产  地 丹麦 / 瑞典
◎类  别 剧情
◎语  言 丹麦语 / 德语 / 英语
◎上映日期 1998-06-19(丹麦)
◎IMDb链接 https://www.imdb.com/title/tt0154420/
◎豆瓣评分 8.3/10 (5479人评价)
◎豆瓣链接 https://movie.douban.com/subject/1292908/
◎片  长 105 分钟
◎导  演 托马斯·温特伯格 Thomas Vinterberg (id:1045236)
◎编  剧 托马斯·温特伯格 Thomas Vinterberg (id:1045236)
      莫根斯·卢克夫 Mogens Rukov (id:1023665)
◎演  员 乌尔里奇·汤姆森 Ulrich Thomsen (id:1036598)
      赫宁·莫里岑 Henning Moritzen (id:1133821)
      托玛斯·博·拉森 Thomas Bo Larsen (id:1037165)
      帕普丽卡·斯汀 Paprika Steen (id:1041280)
      碧尔特·诺伊曼 Birthe Neumann (id:1131127)
      崔娜·蒂虹 Trine Dyrholm (id:1000809)
      赫尔·多勒里斯 Helle Dolleris (id:1084782)
      Therese Glahn Therese Glahn (id:1092543)
      托马斯·温特伯格 Thomas Vinterberg (id:1045236)
      莱娜·劳布·克森 Lene Laub Oksen (id:1414745)
      布贾内·亨里克森 Bjarne Henriksen (id:1016807)
      莫顿?考夫曼 Morten Kaufmann (id:1288229)
      伯尔吉特·哈尔德 Birgitte Hald (id:1285823)
      安东尼·多德·曼妥 Anthony Dod Mantle (id:1282512)
      瓦尔迪斯·奥斯卡斯多蒂尔 Valdís óskarsdóttir (id:1293691)

◎简  介
  一场在丹麦地方富绅海吉豪宅中举行的周末家庭聚会,是为了庆祝他六十岁大寿而筹办的。他的儿子与媳妇、女友与男友,还有几位亲友齐聚一堂为他庆生。不过原来该是融洽的热闹的晚宴,却笼罩着诡异的气氛,仿佛海吉两周前自杀身亡的女儿阴魂犹在。岂知早逝女孩的双胞兄弟击杯起身发言,控诉父亲乱伦并谋杀亲生女儿,引爆了席间的争议对立。而在此状况下,这群人不得不采取先发制人的手段……

◎获奖情况 (共4项)
  第51届戛纳电影节 (1998)
  主竞赛单元 金棕榈奖(提名)
   └──托马斯·温特伯格 (id:1045236)
  主竞赛单元 评审团奖
   └──托马斯·温特伯格 (id:1045236)

  第56届金球奖 (1999)
  电影类 最佳外语片(提名)

  第53届英国电影学院奖 (2000)
  电影奖 最佳非英语片(提名)

Video
ID : 1
Format : AVC
Format/Info : Advanced Video Codec
Format profile : [email protected]
Format settings : CABAC / 5 Ref Frames
Format settings, CABAC : Yes
Format settings, Reference frames : 5 frames
Codec ID : V_MPEG4/ISO/AVC
Duration : 1 h 45 min
Bit rate : 13.1 Mb/s
Width : 1 440 pixels
Height : 1 080 pixels
Display aspect ratio : 4:3
Frame rate mode : Constant
Frame rate : 23.976 (24000/1001/189150) FPS
Color space : YUV
Chroma subsampling : 4:2:0
Bit depth : 8 bits
Scan type : Progressive
Bits/(Pixel*Frame) : 0.351
Stream size : 9.64 GiB (97%)
Writing library : x264 core 157 r2935 545de2f
Encoding settings : cabac=1 / ref=5 / deblock=1:-3:-3 / analyse=0x3:0x133 / me=umh / subme=10 / psy=1 / psy_rd=1.00:0.00 / mixed_ref=1 / me_range=32 / chroma_me=1 / trellis=2 / 8x8dct=1 / cqm=0 / deadzone=21,11 / fast_pskip=0 / chroma_qp_offset=-2 / threads=18 / lookahead_threads=4 / sliced_threads=0 / nr=0 / decimate=0 / interlaced=0 / bluray_compat=0 / constrained_intra=0 / bframes=16 / b_pyramid=2 / b_adapt=2 / b_bias=0 / direct=3 / weightb=1 / open_gop=0 / weightp=1 / keyint=240 / keyint_min=24 / scenecut=40 / intra_refresh=0 / rc_lookahead=60 / rc=crf / mbtree=0 / crf=20.2 / qcomp=0.60 / qpmin=0 / qpmax=69 / qpstep=4 / vbv_maxrate=62500 / vbv_bufsize=78125 / crf_max=0.0 / nal_hrd=none / filler=0 / ip_ratio=1.40 / pb_ratio=1.30 / aq=2:1.00
Default : Yes
Forced : No
Color range : Limited
Color primaries : BT.709
Transfer characteristics : BT.709
Matrix coefficients : BT.709

Audio #1
ID : 2
Format : FLAC
Format/Info : Free Lossless Audio Codec
Codec ID : A_FLAC
Duration : 1 h 45 min
Bit rate mode : Variable
Bit rate : 323 kb/s
Channel(s) : 1 channel
Sampling rate : 48.0 kHz
Frame rate : 11.719 FPS (4096 SPF)
Bit depth : 16 bits
Compression mode : Lossless
Stream size : 243 MiB (2%)
Writing library : libFLAC 1.2.1 (UTC 2007-09-17)
Language : Danish
Default : Yes
Forced : No

Audio #2
ID : 3
Format : AAC LC
Format/Info : Advanced Audio Codec Low Complexity
Codec ID : A_AAC-2
Duration : 1 h 45 min
Bit rate : 80.0 kb/s
Channel(s) : 1 channel
Channel layout : C
Sampling rate : 48.0 kHz
Frame rate : 46.875 FPS (1024 SPF)
Compression mode : Lossy
Delay relative to video : 9 ms
Stream size : 60.4 MiB (0%)
Title : Commentary with director Thomas Vinterberg
Language : Danish
Default : No
Forced : No

Text #1
ID : 4
Format : UTF-8
Codec ID : S_TEXT/UTF8
Codec ID/Info : UTF-8 Plain Text
Duration : 1 h 41 min
Bit rate : 51 b/s
Count of elements : 1188
Stream size : 38.5 KiB (0%)
Language : English
Default : Yes
Forced : No

Text #2
ID : 5
Format : UTF-8
Codec ID : S_TEXT/UTF8
Codec ID/Info : UTF-8 Plain Text
Duration : 1 h 41 min
Bit rate : 68 b/s
Count of elements : 1531
Stream size : 51.5 KiB (0%)
Title : SDH
Language : English
Default : No
Forced : No

Text #3
ID : 6
Format : UTF-8
Codec ID : S_TEXT/UTF8
Codec ID/Info : UTF-8 Plain Text
Duration : 1 h 43 min
Bit rate : 69 b/s
Count of elements : 1279
Stream size : 53.1 KiB (0%)
Title : Commentary with director Thomas Vinterberg
Language : English
Default : No
Forced : No

Text #4
ID : 7
Format : UTF-8
Codec ID : S_TEXT/UTF8
Codec ID/Info : UTF-8 Plain Text
Duration : 1 h 41 min
Bit rate : 47 b/s
Count of elements : 861
Stream size : 35.1 KiB (0%)
Language : Norwegian
Default : No
Forced : No

Text #5
ID : 8
Format : UTF-8
Codec ID : S_TEXT/UTF8
Codec ID/Info : UTF-8 Plain Text
Duration : 1 h 42 min
Bit rate : 47 b/s
Count of elements : 857
Stream size : 35.4 KiB (0%)
Language : Swedish
Default : No
Forced : No

Text #6
ID : 9
Format : UTF-8
Codec ID : S_TEXT/UTF8
Codec ID/Info : UTF-8 Plain Text
Duration : 1 h 43 min
Bit rate : 50 b/s
Count of elements : 870
Stream size : 38.0 KiB (0%)
Language : Finnish
Default : No
Forced : No

Text #7
ID : 10
Format : UTF-8
Codec ID : S_TEXT/UTF8
Codec ID/Info : UTF-8 Plain Text
Duration : 1 h 44 min
Bit rate : 54 b/s
Count of elements : 997
Stream size : 41.4 KiB (0%)
Language : Danish
Default : No
Forced : No

Text #8
ID : 11
Format : UTF-8
Codec ID : S_TEXT/UTF8
Codec ID/Info : UTF-8 Plain Text
Duration : 1 h 44 min
Bit rate : 54 b/s
Count of elements : 1004
Stream size : 41.6 KiB (0%)
Language : Danish
Default : No
Forced : No

Menu
00:00:00.000 : :Brotherly Love
00:06:16.126 : :The Welcome Party
00:10:14.823 : :Dear Old Dad
00:14:01.507 : :Ghosts in the House
00:26:05.397 : :Helge
00:32:33.118 : :First Toast
00:39:01.673 : :Bitters
00:43:58.219 : :The Entire Menu
00:48:36.831 : :Intermezzo Pianissimo
00:57:03.921 : :Snoot
01:11:05.970 : :Sing-along
01:15:36.365 : :The Grand Finale
01:26:50.747 : :Linda
01:30:03.982 : :Little Michael
01:36:47.176 : :Last Time





1 个附件 售价 大小 下载 时间

The.Celebration.1998.DANISH.1080p.BluRay.x264.FLAC.1.0-HANDJOB.torrent 0 金币 25.49K 1421 次 4月前

#1楼
发帖时间:2022-01-24 08:22:08   |   回复数:0
游客组