topgood
武林盟主

[更 早] [台湾] [动作] [BD-720P] 金色太阳 Dragon.Dies.Hard.1975.DUBBED.720p.BluRay.x264-GUACAMOLE 4.59GB

-->

帖子完整标题:金色太阳 Dragon.Dies.Hard.1975.DUBBED.720p.BluRay.x264-GUACAMOLE 4.59GB



◎译  名 金色太阳 / Bruce Lee, We Miss You!
◎片  名 金色太陽
◎年  代 1976
◎产  地 中国台湾
◎类  别 动作 / 武侠
◎语  言 汉语普通话
◎IMDb链接 https://www.imdb.com/title/tt0071252/
◎豆瓣链接 https://movie.douban.com/subject/26295838/
◎演  员 何宗道 Bruce Li (id:1018429)
      龙飞 Fei Lung (id:1007223)
      陈佩玲 Pooi-ling Chan (id:1326515)

Video
ID : 1
Format : AVC
Format/Info : Advanced Video Codec
Format profile : [email protected]
Format settings : CABAC / 8 Ref Frames
Format settings, CABAC : Yes
Format settings, Reference frames : 8 frames
Codec ID : V_MPEG4/ISO/AVC
Duration : 1 h 27 min
Bit rate : 7 244 kb/s
Width : 1 280 pixels
Height : 560 pixels
Display aspect ratio : 2.25:1
Frame rate mode : Constant
Frame rate : 24.000 FPS
Color space : YUV
Chroma subsampling : 4:2:0
Bit depth : 8 bits
Scan type : Progressive
Bits/(Pixel*Frame) : 0.421
Stream size : 4.43 GiB (97%)
Writing library : x264 core 164 r3081 19856cc
Encoding settings : cabac=1 / ref=8 / deblock=1:-3:-3 / analyse=0x3:0x133 / me=umh / subme=9 / psy=1 / psy_rd=1.00:0.00 / mixed_ref=1 / me_range=16 / chroma_me=1 / trellis=2 / 8x8dct=1 / cqm=0 / deadzone=21,11 / fast_pskip=0 / chroma_qp_offset=-2 / threads=17 / lookahead_threads=1 / sliced_threads=0 / nr=0 / decimate=1 / interlaced=0 / bluray_compat=0 / constrained_intra=0 / bframes=3 / b_pyramid=2 / b_adapt=2 / b_bias=0 / direct=3 / weightb=1 / open_gop=0 / weightp=2 / keyint=250 / keyint_min=24 / scenecut=40 / intra_refresh=0 / rc_lookahead=60 / rc=crf / mbtree=1 / crf=19.5 / qcomp=0.60 / qpmin=0 / qpmax=69 / qpstep=4 / ip_ratio=1.40 / aq=3:0.60
Default : Yes
Forced : No
Color range : Limited
Matrix coefficients : BT.709

Audio
ID : 2
Format : AC-3
Format/Info : Audio Coding 3
Commercial name : Dolby Digital
Codec ID : A_AC3
Duration : 1 h 27 min
Bit rate mode : Constant
Bit rate : 256 kb/s
Channel(s) : 2 channels
Channel layout : L R
Sampling rate : 48.0 kHz
Frame rate : 31.250 FPS (1536 SPF)
Compression mode : Lossy
Stream size : 160 MiB (3%)
Language : English
Service kind : Complete Main
Default : Yes
Forced : No

Menu
00:00:00.000 : en:00:00:00.000
00:08:01.583 : en:00:08:01.583
00:16:09.458 : en:00:16:09.458
00:22:19.458 : en:00:22:19.458
00:28:59.250 : en:00:28:59.250
00:33:50.042 : en:00:33:50.042
00:40:04.000 : en:00:40:04.000
00:48:00.333 : en:00:48:00.333
00:56:42.625 : en:00:56:42.625
01:01:40.583 : en:01:01:40.583
01:06:58.000 : en:01:06:58.000
01:15:46.917 : en:01:15:46.917





1 个附件 售价 大小 下载 时间

Dragon.Dies.Hard.1975.DUBBED.720p.BluRay.x264-GUACAMOLE.torrent 0 金币 23.67K 392 次 4月前

#1楼
发帖时间:2022-01-24 08:16:48   |   回复数:0
游客组