zsh9001
小有名气

[2016] [法国] [喜剧] [BD-720P] 招租室友Adopte.un.Veuf.2016.FRENCH.REPACK.720p.BluRay.x264-MAGiCAL 4.37GB

-->


◎译  名 招租室友/Roommates Wanted

◎片  名 Adopte un veuf

◎年  代 2016

◎产  地 法国

◎类  别 喜剧

◎语  言 法语

◎上映日期 2016-04-20

◎IMDb评分  6.2/10 from 1274 users

◎IMDb链接  https://www.imdb.com/title/tt4857596/

◎豆瓣评分 7.1/10 from 321 users

◎豆瓣链接 https://douban.com/subject/26779286/

◎片  长 97分钟

◎导  演 弗朗索瓦·德扎尼亚 François Desagnat

◎编  剧 弗朗索瓦·德扎尼亚 François Desagnat

◎主  演 安德烈·杜索里埃 André Dussollier

       阿尔诺·杜克雷 Arnaud Ducret

       樊尚·德扎尼亚 Vincent Desagnat

       洛拉·弗雷 Lola S. Frey

       奥黛丽·洛滕 Audrey Looten

       茱莉亚·皮亚彤 Julia Piaton


◎简  介


  

  Lorsqu’on est veuf depuis peu, il est difficile de s'habituer à sa nouvelle vie... C’est le cas d’Hubert Jacquin, qui passe le plus clair de son temps dans son immense appartement à déprimer devant sa télé. Un beau jour, suite à un quiproquo, sa vie va être bouleversée. Manuela, une jeune et pétillante baroudeuse à la recherche d’un logement s’invite chez lui ! D’abord réticent, Hubert va vite s’habituer à la présence de cette tempête d’énergie, qui parvient même à le convaincre de loger deux autres personnes. Entre les errements de Paul-Gérard que sa femme a quitté et les gardes à l'hôpital de Marion la jeune infirmière un peu coincée, la vie en colocation va réserver à Hubert de nombreuses surprises…

General

Unique ID                      : 178639550595823549732691369236533257272 (0x8664B9D975F2E7609D81298CB642A438)

Complete name                  : B:\001\Adopte.un.Veuf.2016.FRENCH.REPACK.720p.BluRay.x264-MAGiCAL.mkv

Format                         : Matroska

Format version                 : Version 4

File size                      : 4.37 GiB

Duration                       : 1 h 37 min

Overall bit rate               : 6 447 kb/s

Encoded date                   : UTC 2016-08-22 18:53:47

Writing application            : mkvmerge v9.3.1 ('Mask Machine') 32bit

Writing library                : libebml v1.3.4 + libmatroska v1.4.5


Video

ID                             : 1

Format                         : AVC

Format/Info                    : Advanced Video Codec

Format profile                 : [email protected]

Format settings                : CABAC / 5 Ref Frames

Format settings, CABAC         : Yes

Format settings, Reference fra : 5 frames

Codec ID                       : V_MPEG4/ISO/AVC

Duration                       : 1 h 37 min

Bit rate                       : 4 936 kb/s

Width                          : 1 280 pixels

Height                         : 536 pixels

Display aspect ratio           : 2.40:1

Frame rate mode                : Constant

Frame rate                     : 24.000 FPS

Color space                    : YUV

Chroma subsampling             : 4:2:0

Bit depth                      : 8 bits

Scan type                      : Progressive

Bits/(Pixel*Frame)             : 0.300

Stream size                    : 3.35 GiB (77%)

Writing library                : x264 core 148 r2705 3f5ed56

Encoding settings              : cabac=1 / ref=5 / deblock=1:0:0 / analyse=0x3:0x133 / me=umh / subme=8 / psy=1 / psy_rd=1.00:0.00 / mixed_ref=1 / me_range=16 / chroma_me=1 / trellis=1 / 8x8dct=1 / cqm=0 / deadzone=21,11 / fast_pskip=1 / chroma_qp_offset=-2 / threads=8 / lookahead_threads=1 / sliced_threads=0 / nr=0 / decimate=1 / interlaced=0 / bluray_compat=0 / constrained_intra=0 / bframes=3 / b_pyramid=2 / b_adapt=1 / b_bias=0 / direct=1 / weightb=1 / open_gop=0 / weightp=2 / keyint=250 / keyint_min=24 / scenecut=40 / intra_refresh=0 / rc=2pass / mbtree=0 / bitrate=4936 / ratetol=1.0 / qcomp=0.60 / qpmin=0 / qpmax=69 / qpstep=4 / cplxblur=20.0 / qblur=0.5 / ip_ratio=1.40 / pb_ratio=1.30 / aq=1:1.00

Language                       : French

Default                        : Yes

Forced                         : No


Audio

ID                             : 2

Format                         : DTS

Format/Info                    : Digital Theater Systems

Codec ID                       : A_DTS

Duration                       : 1 h 37 min

Bit rate mode                  : Constant

Bit rate                       : 1 509 kb/s

Channel(s)                     : 6 channels

Channel layout                 : C L R Ls Rs LFE

Sampling rate                  : 48.0 kHz

Frame rate                     : 93.750 FPS (512 SPF)

Bit depth                      : 16 bits

Compression mode               : Lossy

Stream size                    : 1.02 GiB (23%)

Language                       : French

Default                        : Yes

Forced                         : Yes



115下载链接

ed2k://|file|Adopte.un.Veuf.2016.FRENCH.REPACK.720p.BluRay.x264-MAGiCAL.mkv|4695591814|A35B644C8CF6948C3D283407B2A0FE74|h=NWHBTLT73HUPXGNHS33XT5XUWC5FMUOK|/


https://115.com/s/swntqi83nza?password=uc46&#

Adopte.un.Veuf.2016.FRENCH.REPACK.720p.BluRay.x264-MAGiCAL.mkv

访问码:uc46


百度下载链接

8A1D502DF8C5DD1E9E434F789C7FCEC4#82DBC38929A730FB633C0282D5C9B36F#4695591814#Adopte.un.Veuf.2016.FRENCH.REPACK.720p.BluRay.x264-MAGiCAL.mkv


链接:https://pan.baidu.com/s/1V3lexYN2LM6-13w8T54AcA 密码:bfgv

阿里云下载链接

 



1 个附件 售价 大小 下载 时间

Adopte.un.Veuf.2016.FRENCH.REPACK.720p.BluRay.x264-MAGiCAL.mkv.torrent 0 金币 25.31K 658 次 4月前

#1楼
发帖时间:2022-01-24 06:00:21   |   回复数:0
游客组