travismk
一代宗师

[2017] [其它] [喜剧] [WEB-1080P] 卡蜜拉 The.Carmilla.Movie.2017.1080p.AMZN.WEBRip.DDP2.0.x264-ACK 5.19GB

-->

帖子完整标题:卡蜜拉 The.Carmilla.Movie.2017.1080p.AMZN.WEBRip.DDP2.0.x264-ACK 5.19GB



◎译  名 卡蜜拉 / 卡米拉电影版 / 女吸血鬼大电影 / Carmilla
◎片  名 The Carmilla Movie
◎年  代 2017
◎产  地 加拿大
◎类  别 喜剧 / 恐怖 / 同性
◎语  言 英语
◎上映日期 2017-10-26(加拿大)
◎IMDb链接 https://www.imdb.com/title/tt7427856/
◎豆瓣评分 5.2/10 (277人评价)
◎豆瓣链接 https://movie.douban.com/subject/27063875/
◎片  长 97分钟
◎导  演 Spencer Maybee Spencer Maybee (id:1028925)
◎演  员 伊莉丝·鲍曼 Elise Bauman (id:1358053)
      娜塔莎 Natasha Negovanlis (id:1346290)
      多米尼克·普罗沃斯特-切克利 Dominique Provost-Chalkley (id:1348475)
      卡卡琪 Cara Gee (id:1335410)
      莎伦·贝尔 Sharon Belle (id:1370322)
      格蕾丝·林恩·孔 Grace Lynn Kung (id:1344999)

◎简  介
  吸血鬼题材剧集《卡米拉》电影版已在多伦多开机,预计今年秋季上映。剧集版主演伊莉丝·鲍曼与娜塔莎·尼格瓦里斯将双双回归电影版。故事讲述大学新生劳拉发现自己原定的室友意外失踪,取而代之的是一位名叫卡米拉的神秘女子,尽管校园中小状况不断,二人间萌生的友(爱)情却与日俱增。

Video
ID : 1
Format : AVC
Format/Info : Advanced Video Codec
Format profile : [email protected]
Format settings : CABAC / 4 Ref Frames
Format settings, CABAC : Yes
Format settings, Reference frames : 4 frames
Codec ID : V_MPEG4/ISO/AVC
Duration : 1 h 34 min
Bit rate mode : Constant
Bit rate : 7 623 kb/s
Nominal bit rate : 10 000 kb/s
Width : 1 920 pixels
Height : 800 pixels
Display aspect ratio : 2.40:1
Frame rate mode : Constant
Frame rate : 23.976 (24000/1001/189150) FPS
Color space : YUV
Chroma subsampling : 4:2:0
Bit depth : 8 bits
Scan type : Progressive
Bits/(Pixel*Frame) : 0.207
Stream size : 5.04 GiB (97%)
Default : Yes
Forced : No
Color range : Limited
Color primaries : BT.709
Transfer characteristics : BT.709
Matrix coefficients : BT.709

Audio
ID : 2
Format : E-AC-3
Format/Info : Enhanced AC-3
Commercial name : Dolby Digital Plus
Codec ID : A_EAC3
Duration : 1 h 34 min
Bit rate mode : Constant
Bit rate : 224 kb/s
Channel(s) : 2 channels
Channel layout : L R
Sampling rate : 48.0 kHz
Frame rate : 31.250 FPS (1536 SPF)
Compression mode : Lossy
Stream size : 152 MiB (3%)
Language : English
Service kind : Complete Main
Default : Yes
Forced : No

Text
ID : 3
Format : UTF-8
Codec ID : S_TEXT/UTF8
Codec ID/Info : UTF-8 Plain Text
Duration : 1 h 34 min
Bit rate : 76 b/s
Count of elements : 1702
Stream size : 52.7 KiB (0%)
Language : English
Default : Yes
Forced : No





1 个附件 售价 大小 下载 时间

The.Carmilla.Movie.2017.1080p.AMZN.WEBRip.DDP2.0.x264-ACK.torrent 0 金币 13.60K 882 次 4月前

#1楼
发帖时间:2022-01-23 20:51:46   |   回复数:0
游客组