travismk
一代宗师

[更 早] [欧美] [科幻] [BD-1080P] 异形生物/土星异形 Creature.1985.1080p.BluRay.x264-WATCHABLE 14.47GB

-->

帖子完整标题:异形生物/土星异形 Creature.1985.1080p.BluRay.x264-WATCHABLE 14.47GB



◎译  名 异形生物/土星异形/怪魔异形
◎片  名 Creature
◎年  代 1985
◎产  地 美国
◎类  别 科幻 / 惊悚 / 恐怖
◎语  言 英语
◎上映日期 1985-05-08(美国)
◎豆瓣评分 6.5/10 from 66 users
◎豆瓣链接 https://movie.douban.com/subject/2070459/
◎片  长 97分钟
◎导  演 威廉.马隆 William Malone
◎编  剧 威廉.马隆 William Malone
◎主  演 Stan Ivar Stan Ivar
      温迪·夏尔 Wendy Schaal
      莱曼·沃德 Lyman Ward
      克劳斯·金斯基 Klaus Kinski
      黛安·萨林格 Diane Salinger
      Thomas C. James Thomas C. James
      David Moses David Moses

◎简  介

  在遥远的未来,宇宙考古学家在泰坦行星上发现了来历不明的生命体,但随后失去了消息。于是宇航局便派遣德国的一艘宇宙飞船前去营救,没想到却意外降落失败,坠落于星球上。可这颗星球上并不太平,奇怪且致命的事件时有发生,船员不断的死去,人人自危。经过一系列调查,他们发现那些死去的人竟然受到外星生物的控制,变成了活死人!幸存者们迫不得已拿起武器反抗,而更大的危机还在后头……

Video
ID : 1
Format : AVC
Format/Info : Advanced Video Codec
Format profile : [email protected]
Format settings : CABAC / 5 Ref Frames
Format settings, CABAC : Yes
Format settings, Reference frames : 5 frames
Codec ID : V_MPEG4/ISO/AVC
Duration : 1 h 34 min
Bit rate : 20.4 Mb/s
Width : 1 920 pixels
Height : 800 pixels
Display aspect ratio : 2.40:1
Frame rate mode : Constant
Frame rate : 23.976 (24000/1001/189150) FPS
Color space : YUV
Chroma subsampling : 4:2:0
Bit depth : 8 bits
Scan type : Progressive
Bits/(Pixel*Frame) : 0.554
Stream size : 13.5 GiB (93%)
Writing library : x264 core 164 r3081 19856cc
Encoding settings : cabac=1 / ref=5 / deblock=1:-3:-3 / analyse=0x3:0x133 / me=umh / subme=9 / psy=1 / psy_rd=1.00:0.00 / mixed_ref=1 / me_range=16 / chroma_me=1 / trellis=2 / 8x8dct=1 / cqm=0 / deadzone=21,11 / fast_pskip=0 / chroma_qp_offset=-2 / threads=24 / lookahead_threads=2 / sliced_threads=0 / nr=0 / decimate=0 / interlaced=0 / bluray_compat=0 / constrained_intra=0 / bframes=3 / b_pyramid=2 / b_adapt=2 / b_bias=0 / direct=1 / weightb=1 / open_gop=0 / weightp=2 / keyint=250 / keyint_min=23 / scenecut=40 / intra_refresh=0 / rc_lookahead=60 / rc=crf / mbtree=0 / crf=21.3 / qcomp=0.60 / qpmin=0 / qpmax=69 / qpstep=4 / vbv_maxrate=62500 / vbv_bufsize=78125 / crf_max=0.0 / nal_hrd=none / filler=0 / ip_ratio=1.40 / pb_ratio=1.30 / aq=3:0.70
Default : Yes
Forced : No
Color range : Limited
Matrix coefficients : BT.709

Audio #1
ID : 2
Format : FLAC
Format/Info : Free Lossless Audio Codec
Codec ID : A_FLAC
Duration : 1 h 34 min
Bit rate mode : Variable
Bit rate : 1 314 kb/s
Channel(s) : 2 channels
Channel layout : L R
Sampling rate : 48.0 kHz
Frame rate : 11.719 FPS (4096 SPF)
Bit depth : 24 bits
Compression mode : Lossless
Stream size : 892 MiB (6%)
Writing library : libFLAC 1.3.3 (UTC 2019-08-04)
Language : English
Default : Yes
Forced : No

Audio #2
ID : 3
Format : AAC LC
Format/Info : Advanced Audio Codec Low Complexity
Codec ID : A_AAC-2
Duration : 1 h 34 min
Bit rate : 106 kb/s
Channel(s) : 2 channels
Channel layout : L R
Sampling rate : 48.0 kHz
Frame rate : 46.875 FPS (1024 SPF)
Compression mode : Lossy
Stream size : 71.7 MiB (0%)
Title : Commentary track
Language : English
Default : Yes
Forced : No

Text #1
ID : 4
Format : UTF-8
Codec ID : S_TEXT/UTF8
Codec ID/Info : UTF-8 Plain Text
Duration : 1 h 34 min
Bit rate : 45 b/s
Count of elements : 1282
Stream size : 31.4 KiB (0%)
Title : English Full Subtitles
Language : English
Default : No
Forced : No

Text #2
ID : 5
Format : PGS
Muxing mode : zlib
Codec ID : S_HDMV/PGS
Codec ID/Info : Picture based subtitle format used on BDs/HD-DVDs
Duration : 1 h 34 min
Bit rate : 25.2 kb/s
Count of elements : 2565
Stream size : 17.0 MiB (0%)
Title : English Full Subtitles
Language : English
Default : No
Forced : No

Menu
00:00:00.000 : en:Chapter 01
00:17:34.053 : en:Chapter 02
00:37:33.251 : en:Chapter 03
00:55:42.840 : en:Chapter 04
01:13:45.421 : en:Chapter 05





1 个附件 售价 大小 下载 时间

Creature.1985.1080p.BluRay.x264-WATCHABLE.torrent 0 金币 18.74K 1134 次 12天前

#1楼
发帖时间:2022-01-15 09:15:15   |   回复数:0
游客组