squallzhao
一代宗师

[更 早] [其它] [剧情] [WEB-720P] 天罪/天谴 When.the.Sky.Falls.2000.720p.AMZN.WEBRip.DDP5.1.x264-PTP 3.84GB

-->

帖子完整标题:天罪/天谴 When.the.Sky.Falls.2000.720p.AMZN.WEBRip.DDP5.1.x264-PTP 3.84GB



◎译  名 天罪/天谴
◎片  名 When the Sky Falls
◎年  代 2000
◎产  地 英国,爱尔兰,美国
◎类  别 剧情 / 犯罪
◎语  言 英语
◎上映日期 2000-06-26
◎豆瓣评分 /10 from 0 users
◎豆瓣链接 https://movie.douban.com/subject/1479758/
◎片  长 107分钟
◎导  演 约翰·麦肯齐 John Mackenzie
◎编  剧 盖·安德鲁斯 Guy Andrews
◎主  演 Gail Fitzpatrick Gail Fitzpatrick
      吉米·斯莫霍恩 Jimmy Smallhorne
      Patrick David Nolan Patrick David Nolan
      西蒙·德兰尼 Simon Delaney
      Rúaidhrí Conroy Rúaidhrí Conroy
      皮特·波斯尔思韦特 Pete Postlethwaite
      帕特里克·博金 Patrick Bergin
      利亚姆·坎宁安 Liam Cunningham
      玛丽安·奎因 Marian Quinn
      琼·艾伦 Joan Allen
      杰森·贝瑞 Jason Barry
      加文·欧康诺 Gavin O'Connor
      欧文·沃尔 Owen Roe
      Bryan Baker Bryan Baker
      凯文·麦克纳利 Kevin McNally
      文森特·沃尔什 Vincent Walsh
      保罗·罗南 Paul Ronan

◎标  签 爱尔兰 | 英国 | 电影 | 英国电影 | 根据真实事件改编 | 2000 | 记者 | 犯罪

◎简  介

  讲述女记者为了跟踪、报道、揭露爱尔兰的毒品交易犯罪,而最后献出年轻生命的感人故事。拍摄紧凑,故事感人。根据环球日报记者汉密尔顿的真实故事改编。
  
  
  
  如果说这世界上高危的职业有哪些?很少有人会想到记者。但是每年公布的报告显示,年年都有近百名各国的记者会遭遇不同程度的伤亡事件,殉职的人数几乎年年都在50以上。但是很少有人在看到形形色色的新闻报道之时,会想到这其中有时会流淌着报道它们的人的鲜血……今天的新片《WHEN THE SKY FALLS》就讲述了一个真实的记者喋血事件。由爱尔兰、英国、美国合拍的此片将一位勇于献身的爱尔兰女记者辛妮德·汉密尔顿的短暂人生搬上了银幕,由奥斯卡影后提名女星琼·艾伦担纲的此片把都柏林混乱的犯罪活动展现得淋漓尽致,也让我们对这个这个不甚发达的欧洲小国有了一个直观的了解。虽然本片不属于什么A级大制作,但是新闻工作者的艰辛和伟大献身精神仍然深深打动了我,相比我们的媒体工作者们,需要学习的东西真的很多,是否我们也该自问,人家流血是为什么?

Video
ID : 1
Format : AVC
Format/Info : Advanced Video Codec
Format profile : [email protected]
Format settings : CABAC / 4 Ref Frames
Format settings, CABAC : Yes
Format settings, Reference frames : 4 frames
Codec ID : V_MPEG4/ISO/AVC
Duration : 1 h 24 min
Bit rate mode : Constant
Bit rate : 6 000 kb/s
Width : 1 280 pixels
Height : 720 pixels
Display aspect ratio : 16:9
Frame rate mode : Constant
Frame rate : 23.976 (24000/1001/189150) FPS
Color space : YUV
Chroma subsampling : 4:2:0
Bit depth : 8 bits
Scan type : Progressive
Bits/(Pixel*Frame) : 0.272
Stream size : 3.46 GiB (90%)
Default : Yes
Forced : No
Color range : Limited
Color primaries : BT.709
Transfer characteristics : BT.709
Matrix coefficients : BT.709

Audio
ID : 2
Format : E-AC-3
Format/Info : Enhanced AC-3
Commercial name : Dolby Digital Plus
Codec ID : A_EAC3
Duration : 1 h 24 min
Bit rate mode : Constant
Bit rate : 640 kb/s
Channel(s) : 6 channels
Channel layout : L R C LFE Ls Rs
Sampling rate : 48.0 kHz
Frame rate : 31.250 FPS (1536 SPF)
Compression mode : Lossy
Stream size : 386 MiB (10%)
Language : English
Service kind : Complete Main
Default : Yes
Forced : No

Text
ID : 3
Format : UTF-8
Codec ID : S_TEXT/UTF8
Codec ID/Info : UTF-8 Plain Text
Duration : 1 h 20 min
Bit rate : 56 b/s
Count of elements : 1238
Stream size : 33.4 KiB (0%)
Language : English
Default : No
Forced : No





1 个附件 售价 大小 下载 时间

When.the.Sky.Falls.2000.720p.AMZN.WEBRip.DDP5.1.x264-PTP.torrent 0 金币 19.83K 553 次 4月前

#1楼
发帖时间:2022-01-04 14:51:04   |   回复数:0
游客组