fg603603
一代宗师

[更 早] [其它] [剧情] [WEB-720P] 法兰西特派 The.French.Dispatch.2021.720p.AMZN.WEBRip.DDP5.1.x264-TEPES 3.07GB

-->

帖子完整标题:法兰西特派 The.French.Dispatch.2021.720p.AMZN.WEBRip.DDP5.1.x264-TEPES 3.07GB



◎译  名 法兰西特派/The French Dispatch of the Liberty, Kansas Evening Sun/法兰西派遣/法兰西特派周报(台)/法兰西诸事周报(港)/法国派遣/法式派遣
◎片  名 The French Dispatch
◎年  代 2021
◎产  地 德国,美国
◎类  别 剧情 / 喜剧 / 爱情
◎语  言 英语,法语
◎上映日期 2021-07-12(戛纳电影节) / 2021-10-22(美国) / 2021-12-14(美国网络)
◎豆瓣评分 7.9/10 from 4390 users
◎豆瓣链接 https://movie.douban.com/subject/30300279/
◎片  长 108分钟
◎导  演 韦斯·安德森 Wes Anderson
◎编  剧 韦斯·安德森 Wes Anderson / 詹森·舒瓦兹曼 Jason Schwartzman / 罗曼·科波拉 Roman Coppola / 雨果·吉尼斯 Hugo Guinness
◎主  演 弗兰西斯·麦克多蒙德 Frances McDormand
      蒂莫西·柴勒梅德 Timothée Chalamet
      西尔莎·罗南 Saoirse Ronan
      蒂尔达·斯文顿 Tilda Swinton
      爱德华·诺顿 Edward Norton
      蕾雅·赛杜 Léa Seydoux
      伊丽莎白·莫斯 Elisabeth Moss
      欧文·威尔逊 Owen Wilson
      克里斯托弗·瓦尔兹 Christoph Waltz
      艾德里安·布洛迪 Adrien Brody
      威廉·达福 Willem Dafoe
      比尔·默瑞 Bill Murray
      本尼西奥·德尔·托罗 Benicio del Toro
      费舍·史蒂芬斯 Fisher Stevens
      鲁伯特·弗兰德 Rupert Friend
      詹森·舒瓦兹曼 Jason Schwartzman
      列维·施瑞博尔 Liev Schreiber
      杰弗里·怀特 Jeffrey Wright
      安杰丽卡·休斯顿 Anjelica Huston
      塞西尔·德·弗朗斯 Cécile De France
      格里芬·邓恩 Griffin Dunne
      罗伊丝·史密斯 Lois Smith
      亨利·温克勒 Henry Winkler
      马修·阿马立克 Mathieu Amalric
      鲍勃·巴拉班 Bob Balaban
      埃里克斯·劳瑟 Alex Lawther
      托尼·雷沃罗利 Tony Revolori
      莫嘉娜·波兰斯基 Morgane Polanski
      安杰丽卡·贝蒂·费利尼 Anjelica Bette Fellini
      德尼·梅诺谢 Denis Ménochet
      斯蒂夫·朴 Steve Park
      托希布·吉莫 Toheeb Jimoh
      华莱士·沃洛达斯基 Wallace Wolodarsky
      安东尼娅·德斯普拉特 Antonia Desplat
      琳娜·库德里 Lyna Khoudri
      费利克斯·莫阿蒂 Félix Moati
      伊波利特·吉拉尔多 Hippolyte Girardot
      樊尚·马凯涅 Vincent Macaigne
      圭洛姆·加里尼 Guillaume Gallienne
      本杰明·拉维赫尼 Benjamin Lavernhe
      山姆·海加斯 Sam Haygarth
      斯特凡·巴克 Stéphane Bak
      塞缪尔·布伦金 Samuel Blenkin
      尼古拉斯·克劳彻 Nicholas Croucher
      巴勃罗·保利 Pablo Pauly

◎标  签 美国 | 剧情 | 文艺 | 喜剧 | 2020 | 电影 | 2021 | 法国

◎简  介

  本片是给20世纪一家美国报纸驻巴黎前哨站记者们的一封情书,并以三条故事线为中心。

◎获奖情况

  第74届戛纳电影节 ?(2021)
  主竞赛单元金棕榈奖(提名) 韦斯·安德森
  
  第73届戛纳电影节 ?(2020)
  入选过戛纳导演作品(提名) 韦斯·安德森
  
  第79届金球奖 ?(2022)
  电影类最佳原创配乐(提名) 亚历山大·德斯普拉
  
  第7届豆瓣电影年度榜单 ?(2020)
  最值得期待的外语电影(提名)

Video
ID : 1
Format : AVC
Format/Info : Advanced Video Codec
Format profile : [email protected]
Format settings : CABAC / 4 Ref Frames
Format settings, CABAC : Yes
Format settings, Reference frames : 4 frames
Codec ID : V_MPEG4/ISO/AVC
Duration : 1 h 47 min
Bit rate mode : Constant
Bit rate : 3 445 kb/s
Nominal bit rate : 4 000 kb/s
Width : 1 280 pixels
Height : 688 pixels
Display aspect ratio : 1.85:1
Frame rate mode : Constant
Frame rate : 23.976 (24000/1001/189150) FPS
Color space : YUV
Chroma subsampling : 4:2:0
Bit depth : 8 bits
Scan type : Progressive
Bits/(Pixel*Frame) : 0.163
Stream size : 2.59 GiB (84%)
Default : Yes
Forced : No
Color range : Limited
Color primaries : BT.709
Transfer characteristics : BT.709
Matrix coefficients : BT.709

Audio
ID : 2
Format : E-AC-3
Format/Info : Enhanced AC-3
Commercial name : Dolby Digital Plus
Codec ID : A_EAC3
Duration : 1 h 47 min
Bit rate mode : Constant
Bit rate : 640 kb/s
Channel(s) : 6 channels
Channel layout : L R C LFE Ls Rs
Sampling rate : 48.0 kHz
Frame rate : 31.250 FPS (1536 SPF)
Compression mode : Lossy
Stream size : 493 MiB (16%)
Language : English
Service kind : Complete Main
Default : Yes
Forced : No

Text #1
ID : 3
Format : UTF-8
Codec ID : S_TEXT/UTF8
Codec ID/Info : UTF-8 Plain Text
Duration : 1 h 41 min
Bit rate : 68 b/s
Count of elements : 1530
Stream size : 50.7 KiB (0%)
Language : English
Default : No
Forced : No

Text #2
ID : 4
Format : UTF-8
Codec ID : S_TEXT/UTF8
Codec ID/Info : UTF-8 Plain Text
Duration : 1 h 42 min
Bit rate : 77 b/s
Count of elements : 1796
Stream size : 57.7 KiB (0%)
Title : SDH
Language : English
Default : No
Forced : No





1 个附件 售价 大小 下载 时间

The.French.Dispatch.2021.720p.AMZN.WEBRip.DDP5.1.x264-TEPES.torrent 0 金币 16.01K 2751 次 5月前

#1楼
发帖时间:2021-12-14 15:34:06   |   回复数:1
微了个薄
江湖小虾
「法兰西」 远鉴字幕组 「阿里云盘」
链接:https://www.aliyundrive.com/s/Uq51X6b1Jbz
5月前 #2楼
游客组