topgood
一派掌门

[2017] [其它] [剧情] [4K-原盘] 绣春刀II:修罗战场 Brotherhood.of.Blades.II.The.Infernal.Battlefield.2017.CHINESE.2160p.

-->

帖子完整标题:绣春刀II:修罗战场 Brotherhood.of.Blades.II.The.Infernal.Battlefield.2017.CHINESE.2160p.BluRay.REMUX.HEVC.DTS-HD.MA.TrueHD.7.1.Atmos-FGT 54.41GB



◎译  名 Brotherhood of Blades II: The Infernal Battlefield/绣春刀:修罗场/绣春刀2:修罗战场/绣春刀前传
◎片  名 绣春刀II:修罗战场
◎年  代 2017
◎产  地 中国大陆
◎类  别 剧情 / 动作 / 武侠 / 古装
◎语  言 汉语普通话
◎上映日期 2017-06-18(上海电影节) / 2017-07-19(中国大陆)
◎豆瓣评分 7.2/10 from 368788 users
◎豆瓣链接 https://movie.douban.com/subject/26270502/
◎片  长 120分钟
◎导  演 路阳 Yang Lu
◎编  剧 陈舒 Shu Chen / 路阳 Yang Lu / 禹扬 Yang Yu
◎主  演 张震 Chen Chang
      杨幂 Mi Yang
      张译 Yi Zhang
      雷佳音 Jiayin Lei
      辛芷蕾 Zhilei Xin
      金士杰 Shih-Chieh King
      刘端端 Duanduan Liu
      武强 Qiang Wu
      杨轶 Yi Yang
      李媛 Yuan Li
      吴晓亮 Xiaoliang Wu
      李洪涛 Hongtao Li
      刘峰超 Fengchao Liu
      袁文康 Wenkang Yuan
      马赫 He Ma
      刘亭作 Tingzuo Liu
      姜晓冲 Xiaozhong Jiang
      陈齐威 Qiwei Chen
      王仁君 Renjun Wang
      周一围 Yiwei Zhou
      郭鑫 Xin Guo
      赵异卓 Yizhuo Zhao

◎标  签 武侠 | 古装 | 锦衣卫 | 动作 | 国产 | 2017 | 剧情 | 华语

◎简  介

  明天启七年,北镇抚司锦衣卫沈炼(张震 饰)在一次扫除乱党任务中,为救画师北斋(杨幂 饰),将同僚凌云铠(武强 饰)灭口。此后一方面要摆脱来自陆文昭(张译 饰)、裴纶(雷佳音 饰)的质疑与调查,一方面又在神秘女子的要挟下放火烧了锦衣卫经历司。裹挟在乱世,沈炼与北斋情陷其中,却越陷越深。而在这一切的背后,巨大阴谋正暗中布局。众生如蝼蚁囿于修罗场,逆鳞之战,一触即发……

◎获奖情况

  第54届台北金马影展 ?(2017)
  金马奖最佳男配角(提名) 雷佳音
  金马奖最佳造型设计(提名) 梁婷婷
  金马奖最佳动作设计 桑林
  金马奖最佳原创配乐(提名) 川井宪次
  
  第12届亚洲电影大奖 ?(2018)
  最佳动作电影(提名)
  最佳音响(提名) 王钢
  
  第18届华语电影传媒大奖 ?(2018)
  最佳男配角 张译
  
  第25届北京大学生电影节 ?(2018)
  最佳编剧奖(提名) 路阳?/?禹扬?/?陈舒
  最佳男演员奖 张震
  最佳观赏效果奖(提名)
  最受大学生欢迎女演员 杨幂
  
  第4届豆瓣电影年度榜单 ?(2017)
  评分最高的华语电影(提名)
  7月最受关注电影(提名)

Video
ID : 1
ID in the original source medium : 4113 (0x1011)
Format : HEVC
Format/Info : High Efficiency Video Coding
Format profile : Main [email protected]@High
HDR format : SMPTE ST 2086, HDR10 compatible
Codec ID : V_MPEGH/ISO/HEVC
Duration : 1 h 59 min
Bit rate : 53.0 Mb/s
Width : 3 840 pixels
Height : 2 160 pixels
Display aspect ratio : 16:9
Frame rate mode : Constant
Frame rate : 24.000 FPS
Standard : Component
Color space : YUV
Chroma subsampling : 4:2:0 (Type 2)
Bit depth : 10 bits
Bits/(Pixel*Frame) : 0.266
Stream size : 44.4 GiB (82%)
Language : English
Default : No
Forced : No
Color range : Limited
Color primaries : BT.2020
Transfer characteristics : PQ
Matrix coefficients : BT.2020 non-constant
Mastering display color primaries : BT.2020
Mastering display luminance : min: 0.0000 cd/m2, max: 10000 cd/m2
Maximum Content Light Level : 8214 cd/m2
Maximum Frame-Average Light Level : 233 cd/m2
Original source medium : Blu-ray

Audio #1
ID : 2
ID in the original source medium : 4352 (0x1100)
Format : MLP FBA 16-ch
Format/Info : Meridian Lossless Packing FBA with 16-channel presentation
Commercial name : Dolby TrueHD with Dolby Atmos
Codec ID : A_TRUEHD
Duration : 1 h 59 min
Bit rate mode : Variable
Bit rate : 3 655 kb/s
Maximum bit rate : 5 319 kb/s
Channel(s) : 8 channels
Channel layout : L R C LFE Ls Rs Lb Rb
Sampling rate : 48.0 kHz
Frame rate : 1 200.000 FPS (40 SPF)
Bit depth : 24 bits
Compression mode : Lossless
Stream size : 3.06 GiB (6%)
Title : TrueHD 7.1 Atmos
Language : Chinese
Default : Yes
Forced : No
Original source medium : Blu-ray
Number of dynamic objects : 11
Bed channel count : 1 channel
Bed channel configuration : LFE

Audio #2
ID : 3
Format : DTS XLL
Format/Info : Digital Theater Systems
Commercial name : DTS-HD Master Audio
Codec ID : A_DTS
Duration : 1 h 59 min
Bit rate mode : Variable
Bit rate : 4 115 kb/s
Channel(s) : 8 channels
Channel layout : C L R LFE Lb Rb Lss Rss
Sampling rate : 48.0 kHz
Frame rate : 93.750 FPS (512 SPF)
Bit depth : 24 bits
Compression mode : Lossless
Stream size : 3.45 GiB (6%)
Title : DTS-HD MA 7.1
Language : Chinese
Default : No
Forced : No

Audio #3
ID : 4
ID in the original source medium : 4352 (0x1100)
Format : AC-3
Format/Info : Audio Coding 3
Commercial name : Dolby Digital
Format settings : Dolby Surround EX
Codec ID : A_AC3
Duration : 1 h 59 min
Bit rate mode : Constant
Bit rate : 640 kb/s
Channel(s) : 6 channels
Channel layout : L R C LFE Ls Rs
Sampling rate : 48.0 kHz
Frame rate : 31.250 FPS (1536 SPF)
Compression mode : Lossy
Stream size : 549 MiB (1%)
Title : DD 5.1
Language : Chinese
Service kind : Complete Main
Default : No
Forced : No
Original source medium : Blu-ray

Audio #4
ID : 5
ID in the original source medium : 4353 (0x1101)
Format : MLP FBA
Format/Info : Meridian Lossless Packing FBA
Commercial name : Dolby TrueHD
Codec ID : A_TRUEHD
Duration : 1 h 59 min
Bit rate mode : Variable
Bit rate : 2 708 kb/s
Maximum bit rate : 4 002 kb/s
Channel(s) : 6 channels
Channel layout : L R C LFE Ls Rs
Sampling rate : 96.0 kHz
Frame rate : 1 200.000 FPS (80 SPF)
Bit depth : 24 bits
Compression mode : Lossless
Stream size : 2.27 GiB (4%)
Title : TrueHD 5.1
Language : Chinese
Default : No
Forced : No
Original source medium : Blu-ray

Audio #5
ID : 6
ID in the original source medium : 4353 (0x1101)
Format : AC-3
Format/Info : Audio Coding 3
Commercial name : Dolby Digital
Format settings : Dolby Surround EX
Codec ID : A_AC3
Duration : 1 h 59 min
Bit rate mode : Constant
Bit rate : 640 kb/s
Channel(s) : 6 channels
Channel layout : L R C LFE Ls Rs
Sampling rate : 48.0 kHz
Frame rate : 31.250 FPS (1536 SPF)
Compression mode : Lossy
Stream size : 549 MiB (1%)
Title : DD 5.1
Language : Chinese
Service kind : Complete Main
Default : No
Forced : No
Original source medium : Blu-ray

Text #1
ID : 7
Format : UTF-8
Codec ID : S_TEXT/UTF8
Codec ID/Info : UTF-8 Plain Text
Duration : 1 h 58 min
Bit rate : 32 b/s
Count of elements : 1120
Stream size : 28.1 KiB (0%)
Language : English
Default : Yes
Forced : No

Text #2
ID : 8
ID in the original source medium : 4768 (0x12A0)
Format : PGS
Muxing mode : zlib
Codec ID : S_HDMV/PGS
Codec ID/Info : Picture based subtitle format used on BDs/HD-DVDs
Duration : 1 h 57 min
Bit rate : 20.1 kb/s
Count of elements : 2098
Stream size : 16.9 MiB (0%)
Language : Chinese
Default : No
Forced : No
Original source medium : Blu-ray

Text #3
ID : 9
ID in the original source medium : 4769 (0x12A1)
Format : PGS
Muxing mode : zlib
Codec ID : S_HDMV/PGS
Codec ID/Info : Picture based subtitle format used on BDs/HD-DVDs
Duration : 1 h 57 min
Bit rate : 18.7 kb/s
Count of elements : 2098
Stream size : 15.7 MiB (0%)
Language : Chinese
Default : No
Forced : No
Original source medium : Blu-ray

Text #4
ID : 10
ID in the original source medium : 4770 (0x12A2)
Format : PGS
Muxing mode : zlib
Codec ID : S_HDMV/PGS
Codec ID/Info : Picture based subtitle format used on BDs/HD-DVDs
Duration : 1 h 58 min
Bit rate : 28.0 kb/s
Count of elements : 2122
Stream size : 23.8 MiB (0%)
Language : English
Default : No
Forced : No
Original source medium : Blu-ray

Menu
00:00:00.000 : en:Chapter 01
00:06:13.666 : en:Chapter 02
00:12:58.833 : en:Chapter 03
00:16:20.958 : en:Chapter 04
00:22:34.416 : en:Chapter 05
00:30:38.500 : en:Chapter 06
00:34:40.791 : en:Chapter 07
00:40:00.375 : en:Chapter 08
00:45:12.625 : en:Chapter 09
00:53:05.958 : en:Chapter 10
00:59:21.583 : en:Chapter 11
01:02:59.833 : en:Chapter 12
01:09:05.541 : en:Chapter 13
01:15:16.750 : en:Chapter 14
01:21:23.208 : en:Chapter 15
01:27:59.500 : en:Chapter 16
01:32:45.791 : en:Chapter 17
01:37:04.750 : en:Chapter 18
01:51:21.291 : en:Chapter 19
01:54:30.291 : en:Chapter 20





#1楼
发帖时间:2021-11-30 09:18:07   |   回复数:2
popeye69
一派掌门
谢谢楼主分享。
1月前 #2楼
jokingcheung
一代宗师
谢谢分享
1月前 #3楼
游客组