travismk
一代宗师

[更 早] [其它] [剧情] [WEB-1080P] 干柴烈火 Water.Drops.On.Burning.Rocks.2000.FRENCH.1080p.AMZN.WEBRip.AAC2.0.x264-DEEP

-->

帖子完整标题:干柴烈火 Water.Drops.On.Burning.Rocks.2000.FRENCH.1080p.AMZN.WEBRip.AAC2.0.x264-DEEP 3.23GB



◎译  名 干柴烈火/Water Drops on Burning Rocks
◎片  名 Gouttes d'eau sur pierres br?lantes
◎年  代 2000
◎产  地 法国
◎类  别 剧情 / 情色 / 同性
◎语  言 法语,德语
◎上映日期 2000-03-15(法国)
◎豆瓣评分 7.1/10 from 4224 users
◎豆瓣链接 https://movie.douban.com/subject/1298609/
◎片  长 90 分钟
◎导  演 弗朗索瓦·欧容 Fran?ois Ozon
◎编  剧 弗朗索瓦·欧容 Fran?ois Ozon / 赖纳·维尔纳·法斯宾德 Rainer Werner Fassbinder
◎主  演 贝纳·纪欧多 Bernard Giraudeau
      马立克·兹迪 Malik Zidi
      露德温·塞尼耶 Ludivine Sagnier
      安娜·莱文 Anna Levine

◎标  签 法国 | 情色 | 法国电影 | 同性 | 弗朗索瓦·欧容 | 同志 | Francois_Ozon | 2000

◎简  介

  20世纪70年代,德国。房屋待售的富商里欧帕(Bernard Giraudeau 饰)结实了四处寻找住房的19岁俊美青年弗兰兹(Malik Zidi 饰),身为同性恋的他为眼前这个青年所吸引,于是有意识地勾起了弗兰兹的同性恋欲望。弗兰兹落入情场高手的陷阱,从此成为里欧帕的情欲努力。年龄和身份的悬殊让他们之间矛盾不断,分分合合。在这一过程中,弗兰兹深深爱上了这位不该爱上的情人。不久,事态变得愈加复杂起来。弗兰兹的女友安娜(Ludivine Sagnier 饰)找上门来,她本希望带走男友,却在一瞬间被里欧帕迷住。而里欧帕的前男友——变性人维拉(Anna Levine 饰)也介入其中。四角关系错综复杂,究竟该如何收场……
  
  本片入围2000年柏林国际电影节主竞赛单元并获得泰迪熊奖、获得2000年纽约同性恋电影节最佳影片奖。

◎获奖情况

  第50届柏林国际电影节 ?(2000)
  金熊奖(提名) 弗朗索瓦·欧容
  泰迪熊奖最佳电影 弗朗索瓦·欧容

Video
ID : 1
Format : AVC
Format/Info : Advanced Video Codec
Format profile : [email protected]
Format settings : CABAC / 4 Ref Frames
Format settings, CABAC : Yes
Format settings, Reference frames : 4 frames
Codec ID : V_MPEG4/ISO/AVC
Duration : 1 h 25 min
Bit rate : 5 278 kb/s
Width : 1 796 pixels
Height : 1 076 pixels
Display aspect ratio : 5:3
Frame rate mode : Constant
Frame rate : 24.000 FPS
Color space : YUV
Chroma subsampling : 4:2:0
Bit depth : 8 bits
Scan type : Progressive
Bits/(Pixel*Frame) : 0.114
Stream size : 3.15 GiB (98%)
Language : French
Default : No
Forced : No
Color range : Limited
Color primaries : BT.709
Transfer characteristics : BT.709
Matrix coefficients : BT.709

Audio
ID : 2
Format : AAC LC
Format/Info : Advanced Audio Codec Low Complexity
Codec ID : A_AAC-2
Duration : 1 h 25 min
Bit rate : 121 kb/s
Channel(s) : 2 channels
Channel layout : L R
Sampling rate : 48.0 kHz
Frame rate : 46.875 FPS (1024 SPF)
Compression mode : Lossy
Stream size : 74.3 MiB (2%)
Language : French
Default : No
Forced : No

Text
ID : 3
Format : UTF-8
Codec ID : S_TEXT/UTF8
Codec ID/Info : UTF-8 Plain Text
Duration : 1 h 24 min
Bit rate : 42 b/s
Count of elements : 1053
Stream size : 26.5 KiB (0%)
Language : English
Default : Yes
Forced : No

Menu
00:00:00.000 : Chapitre 1
00:18:41.791 : Chapitre 2
00:31:26.374 : Chapitre 3
00:51:02.665 : Chapitre 4
01:22:04.540 : Chapitre 5





1 个附件 售价 大小 下载 时间

Water.Drops.On.Burning.Rocks.2000.FRENCH.1080p.AMZN.WEBRip.AAC2.0.x264-DEEP.torrent 0 金币 16.81K 6626 次 1月前

#1楼
发帖时间:2021-11-29 21:42:42   |   回复数:2
popeye69
一派掌门
谢谢楼主分享。
1月前 #2楼
kola13
武林盟主
感谢分享
1月前 #3楼
游客组