travismk
一代宗师

[更 早] [其他] [剧情] [BD-720P] 一无所有/折翼天使 All.or.Nothing.2002.720p.BluRay.x264-GAZER 4.95GB

-->

帖子完整标题:一无所有/折翼天使 All.or.Nothing.2002.720p.BluRay.x264-GAZER 4.95GB



◎译  名 一无所有/折翼天使
◎片  名 All or Nothing
◎年  代 2002
◎产  地 英国,法国
◎类  别 剧情
◎语  言 英语,阿拉伯语,法语
◎上映日期 2002-09-09
◎豆瓣评分 8.0/10 from 1420 users
◎豆瓣链接 https://movie.douban.com/subject/1303680/
◎片  长 128分钟
◎导  演 迈克·李 Mike Leigh
◎编  剧 迈克·李 Mike Leigh
◎主  演 蒂莫西·斯波 Timothy Spall
      莱丝利·曼维尔 Lesley Manville
      詹姆斯·柯登 James Corden
      莎莉·霍金斯 Sally Hawkins
      玛丽昂·贝利 Marion Bailey
      多萝西·阿特金森 Dorothy Atkinson
      玛克辛·皮克 Maxine Peake

◎标  签 英国 | 迈克·李 | 英国电影 | 剧情 | MikeLeigh | 2002 | 家庭 | 法国

◎简  介

  在漫长而又乏味的婚姻生活中,佩妮(莱丝利·曼维尔 Lesley Manville 饰)感到自己的人生走入了谷底,收银员的工作让她日复一日重复着同样的动作,身为出租车司机的丈夫菲尔(蒂莫西·斯波 Timothy Spall 饰)则早就已经对妻子的喜怒哀乐无动于衷。女儿瑞秋(Alison Garland 饰)是个替老人打扫卫生的保姆,儿子罗伊(詹姆斯·柯登 James Corden 饰)失业闲赋在家,未来中佩妮觉得自己看不到任何的希望。
  
  罗伊的突然病倒使整个家庭陷入了恐慌,本以为对家庭已经毫无感情的佩妮这才发现儿子的存在对自己来说是多么的重要。在对罗伊的照顾和看护之中,佩妮和菲尔逐渐的找回了昔日的激情,家庭的裂缝开始缓慢愈合。

◎获奖情况

  第55届戛纳电影节 ?(2002)
  主竞赛单元金棕榈奖(提名) 迈克·李

Video
ID : 1
Format : AVC
Format/Info : Advanced Video Codec
Format profile : [email protected]
Format settings : CABAC / 9 Ref Frames
Format settings, CABAC : Yes
Format settings, Reference frames : 9 frames
Codec ID : V_MPEG4/ISO/AVC
Duration : 2 h 8 min
Bit rate : 5 077 kb/s
Width : 1 280 pixels
Height : 692 pixels
Display aspect ratio : 1.85:1
Frame rate mode : Constant
Frame rate : 24.000 FPS
Color space : YUV
Chroma subsampling : 4:2:0
Bit depth : 8 bits
Scan type : Progressive
Bits/(Pixel*Frame) : 0.239
Stream size : 4.55 GiB (92%)
Writing library : x264 core 164 r3065 ae03d92
Encoding settings : cabac=1 / ref=9 / deblock=1:-3:-3 / analyse=0x3:0x133 / me=umh / subme=10 / psy=1 / psy_rd=1.20:0.00 / mixed_ref=1 / me_range=24 / chroma_me=1 / trellis=2 / 8x8dct=1 / cqm=0 / deadzone=21,11 / fast_pskip=0 / chroma_qp_offset=-2 / threads=22 / lookahead_threads=3 / sliced_threads=0 / nr=0 / decimate=0 / interlaced=0 / bluray_compat=0 / constrained_intra=0 / bframes=8 / b_pyramid=2 / b_adapt=2 / b_bias=0 / direct=3 / weightb=1 / open_gop=0 / weightp=2 / keyint=250 / keyint_min=24 / scenecut=40 / intra_refresh=0 / rc_lookahead=60 / rc=crf / mbtree=1 / crf=18.0 / qcomp=0.60 / qpmin=0 / qpmax=69 / qpstep=4 / ip_ratio=1.40 / aq=3:0.90
Default : Yes
Forced : No
Color range : Limited
Matrix coefficients : BT.709

Audio
ID : 2
Format : FLAC
Format/Info : Free Lossless Audio Codec
Codec ID : A_FLAC
Duration : 2 h 8 min
Bit rate mode : Variable
Bit rate : 428 kb/s
Channel(s) : 2 channels
Channel layout : L R
Sampling rate : 48.0 kHz
Frame rate : 11.719 FPS (4096 SPF)
Bit depth : 16 bits
Compression mode : Lossless
Stream size : 393 MiB (8%)
Writing library : libFLAC 1.3.3 (UTC 2019-08-04)
Language : English
Default : Yes
Forced : No

Text #1
ID : 3
Format : PGS
Muxing mode : zlib
Codec ID : S_HDMV/PGS
Codec ID/Info : Picture based subtitle format used on BDs/HD-DVDs
Duration : 2 h 2 min
Bit rate : 32.7 kb/s
Count of elements : 3410
Stream size : 28.7 MiB (1%)
Title : SDH
Language : English
Default : No
Forced : No

Text #2
ID : 4
Format : PGS
Muxing mode : zlib
Codec ID : S_HDMV/PGS
Codec ID/Info : Picture based subtitle format used on BDs/HD-DVDs
Duration : 2 h 5 min
Bit rate : 29.9 kb/s
Count of elements : 3322
Stream size : 27.0 MiB (1%)
Language : German
Default : No
Forced : No

Menu
00:00:00.000 : Chapter 01
00:09:14.583 : Chapter 02
00:19:50.833 : Chapter 03
00:29:45.708 : Chapter 04
00:38:21.500 : Chapter 05
00:49:43.750 : Chapter 06
00:58:42.667 : Chapter 07
01:09:12.125 : Chapter 08
01:19:16.792 : Chapter 09
01:32:42.625 : Chapter 10
01:43:10.625 : Chapter 11
01:55:33.208 : Chapter 12





1 个附件 售价 大小 下载 时间

All.or.Nothing.2002.720p.BluRay.x264-GAZER.torrent 0 金币 25.48K 1190 次 1月前

#1楼
发帖时间:2021-11-29 20:17:42   |   回复数:1
popeye69
一派掌门
谢谢楼主分享。
1月前 #2楼
游客组