squallzhao
一代宗师

[2019] [其他] [剧情] [BD-1080P] 爱慕 Adoration.2019.1080p.BluRay.x264-BiPOLAR 16.25GB

-->

帖子完整标题:爱慕 Adoration.2019.1080p.BluRay.x264-BiPOLAR 16.25GB



◎译  名 爱慕
◎片  名 Adoration
◎年  代 2019
◎产  地 比利时,法国
◎类  别 剧情 / 惊悚
◎语  言 法语,荷兰语
◎上映日期 2019-08-16(洛迦诺电影节) / 2020-01-22(法国)
◎豆瓣评分 5.7/10 from 127 users
◎豆瓣链接 https://movie.douban.com/subject/27203185/
◎片  长 98分钟
◎导  演 法布里斯·度·沃尔斯 Fabrice Du Welz
◎编  剧 法布里斯·度·沃尔斯 Fabrice Du Welz / 罗曼·普罗塔特 Romain Protat
◎主  演 托马斯·乔里亚 Thomas Gioria
      芳汀·阿杜安 Fantine Harduin
      伯努瓦·波尔沃德 Beno?t Poelvoorde
      安纳尔·斯诺克 Ana?l Snoek
      格温德林·古弗内克 Gwendolyn Gourvenec
      彼得·范·登·贝京 Peter Van den Begin
      夏洛特·冯黛梅尔许 Charlotte Vandermeersch
      洛朗·吕卡 Laurent Lucas
      桑德尔·丰泰克 Sandor Funtek
      皮埃尔·尼斯 Pierre Nisse
      Jean-Luc Couchard Jean-Luc Couchard
      雷诺·拉顿 Renaud Rutten
      艾曼纽·贝阿 Emmanuelle Béart
      碧翠斯·黛尔 Béatrice Dalle

◎标  签 法国 | 剧情 | 2019 | 法国电影 | 电影 | 比利时 | 惊悚 | 戛纳72

◎简  介

  芳蒂妮·阿和蒂安([快乐结局])将加盟新片[爱慕](Adoration,暂译)。法布里斯·度·沃尔斯([国王口信])执导。该片讲述12岁的保罗爱上了女孩格洛丽亚(芳蒂妮饰)。格洛丽亚是保罗母亲工作的精神病院里一个精神分裂少女。在格洛丽亚犯罪之后,保罗决定帮她逃脱,两人展开了一场疯狂的旅程。

◎获奖情况

  第72届洛迦诺国际电影节 ?(2019)
  VarietyPiazzaGrandeAward(提名) 法布里斯·度·沃尔斯

Video
ID : 1
Format : AVC
Format/Info : Advanced Video Codec
Format profile : [email protected]
Format settings : CABAC / 5 Ref Frames
Format settings, CABAC : Yes
Format settings, Reference frames : 5 frames
Codec ID : V_MPEG4/ISO/AVC
Duration : 1 h 38 min
Bit rate : 19.8 Mb/s
Width : 1 920 pixels
Height : 806 pixels
Display aspect ratio : 2.40:1
Frame rate mode : Constant
Frame rate : 24.000 FPS
Color space : YUV
Chroma subsampling : 4:2:0
Bit depth : 8 bits
Scan type : Progressive
Bits/(Pixel*Frame) : 0.533
Stream size : 13.7 GiB (84%)
Writing library : x264 core 164 r3075 66a5bc1
Encoding settings : cabac=1 / ref=5 / deblock=1:-3:-3 / analyse=0x3:0x133 / me=umh / subme=10 / psy=1 / psy_rd=1.00:0.15 / mixed_ref=1 / me_range=24 / chroma_me=1 / trellis=2 / 8x8dct=1 / cqm=0 / deadzone=21,11 / fast_pskip=1 / chroma_qp_offset=-3 / threads=18 / lookahead_threads=3 / sliced_threads=0 / nr=0 / decimate=1 / interlaced=0 / bluray_compat=0 / constrained_intra=0 / bframes=8 / b_pyramid=2 / b_adapt=2 / b_bias=0 / direct=3 / weightb=1 / open_gop=0 / weightp=2 / keyint=250 / keyint_min=24 / scenecut=40 / intra_refresh=0 / rc_lookahead=60 / rc=crf / mbtree=1 / crf=18.0 / qcomp=0.60 / qpmin=0 / qpmax=69 / qpstep=4 / ip_ratio=1.40 / aq=3:0.50
Language : English
Default : Yes
Forced : No
Color range : Limited
Matrix coefficients : BT.709

Audio
ID : 2
Format : DTS XLL
Format/Info : Digital Theater Systems
Commercial name : DTS-HD Master Audio
Codec ID : A_DTS
Duration : 1 h 38 min
Bit rate mode : Variable
Bit rate : 3 744 kb/s
Channel(s) : 6 channels
Channel layout : C L R Ls Rs LFE
Sampling rate : 48.0 kHz
Frame rate : 93.750 FPS (512 SPF)
Bit depth : 24 bits
Compression mode : Lossless
Stream size : 2.59 GiB (16%)
Language : French
Default : Yes
Forced : No

Text #1
ID : 3
Format : UTF-8
Codec ID : S_TEXT/UTF8
Codec ID/Info : UTF-8 Plain Text
Duration : 1 h 32 min
Bit rate : 24 b/s
Count of elements : 695
Stream size : 16.9 KiB (0%)
Title : English
Language : English
Default : Yes
Forced : Yes

Text #2
ID : 4
Format : PGS
Muxing mode : zlib
Codec ID : S_HDMV/PGS
Codec ID/Info : Picture based subtitle format used on BDs/HD-DVDs
Duration : 1 h 33 min
Bit rate : 3 075 b/s
Count of elements : 1391
Stream size : 2.05 MiB (0%)
Title : English
Language : English
Default : No
Forced : No

Text #3
ID : 5
Format : PGS
Muxing mode : zlib
Codec ID : S_HDMV/PGS
Codec ID/Info : Picture based subtitle format used on BDs/HD-DVDs
Duration : 1 h 38 min
Bit rate : 2 830 b/s
Count of elements : 1393
Stream size : 2.00 MiB (0%)
Title : Spanish
Language : Spanish
Default : No
Forced : No

Menu
00:00:00.000 : en:00:00:00.000
00:11:04.917 : en:00:11:04.917
00:24:42.458 : en:00:24:42.458
00:37:51.750 : en:00:37:51.750
00:50:21.958 : en:00:50:21.958
00:59:58.542 : en:00:59:58.542
01:16:30.375 : en:01:16:30.375
01:25:58.333 : en:01:25:58.333





1 个附件 售价 大小 下载 时间

Adoration.2019.1080p.BluRay.x264-BiPOLAR.torrent 0 金币 21.12K 742 次 1月前

#1楼
发帖时间:2021-11-29 19:08:59   |   回复数:1
popeye69
一派掌门
谢谢楼主分享。
1月前 #2楼
游客组