squallzhao
一代宗师

[更 早] [其他] [动作] [BD-1080P] 新龍門客棧 Dragon.Inn.1992.PROPER.1080p.BluRay.x264-USURY 16.31GB

-->

帖子完整标题:新龍門客棧 Dragon.Inn.1992.PROPER.1080p.BluRay.x264-USURY 16.31GB



◎译  名 新龙门客栈/New Dragon Gate Inn
◎片  名 新龍門客棧
◎年  代 1992
◎产  地 中国香港,中国大陆
◎类  别 动作 / 爱情 / 武侠 / 古装
◎语  言 汉语普通话,粤语
◎上映日期 1992-08-27(中国香港) / 2012-02-24(中国大陆)
◎豆瓣评分 8.6/10 from 382835 users
◎豆瓣链接 https://movie.douban.com/subject/1292287/
◎片  长 88分钟
◎导  演 李惠民 Raymond Lee
◎编  剧 徐克 Hark Tsui / 张炭 Cheung Tan / 吕晓禾 Xiaohe Lü / 司徒慧焯 Roy Szeto / 何冀平 Jiping He / 苏叔阳 Shuyang Su / 胡金铨 King Hu
◎主  演 张曼玉 Maggie Cheung
      林青霞 Brigitte Lin
      梁家辉 Tony Leung
      甄子丹 Donnie Yen
      熊欣欣 Xinxin Xiong
      刘洵 Shun Lau
      任世官 Shi-Kwan Yen
      吴启华 Lawrence Ng
      袁祥仁 Cheung-Yan Yuen
      徐锦江 Elvis Tsui
      郑希怡 Hei-Yi Cheng
      王彤川 Tongchuan Wang
      王伟顺 Wai Shun Wong
      蔡浩 Ho Choi
      邢金沙 Jinsha Xing
      陈志辉 Chi Fai Chan
      魏晶琦 Rita Wei
      廖静妮 Jingni Liao
      冯雪瑞 Xuerui Feng
      施懿 Yi Shi
      元彬 Bun Yuen

◎标  签 武侠 | 香港电影 | 经典 | 动作 | 古装 | 爱情 | 剧情 | 1992

◎简  介

  宦官专权的明朝中叶,东厂曹少钦(甄子丹)假造圣旨杀害了忠良杨宇轩,并想斩草除根杀死其后代。侠女邱莫言(林青霞)、江湖义士贺虎等人冒死救出忠良后代后,逃至边关沙漠里的龙门客栈,与杨宇轩部下周淮安(梁家辉)会合。龙门客栈实则黑店,老板娘金镶玉(张曼玉)利用乱世,以美貌和风骚 作诱饵杀人越货聚敛钱财,但她却为英俊潇洒的周淮安动了真心。为了摸清潜藏于龙门客栈中的出关暗道,周淮安将计就计,答应与金镶玉成亲。
  
  洞房花烛夜,楼上的周淮安与金镶玉各怀心事暗中较劲,楼下的邱莫言、贺虎等人也与东厂一众“走狗”展开了明争暗斗,战事一触即发。

◎获奖情况

  第29届台北金马影展 ?(1992)
  金马奖最佳女主角(提名) 张曼玉
  金马奖最佳摄影(提名) 黄岳泰?/?刘满棠
  金马奖最佳美术设计(提名) 张叔平?/?钟移风
  金马奖最佳造型设计(提名) 张叔平
  金马奖最佳动作设计 程小东?/?元彬
  金马奖最佳剪辑(提名) 潘雄
  
  第12届香港电影金像奖 ?(1993)
  最佳女主角(提名) 张曼玉
  最佳摄影(提名) 黄岳泰?/?刘满棠
  最佳剪接(提名) 潘雄
  最佳动作设计(提名) 程小东?/?元彬
  
  第1届北京大学生电影节 ?(1993)
  最佳观赏效果奖

Video
ID : 1
Format : AVC
Format/Info : Advanced Video Codec
Format profile : [email protected]
Format settings : CABAC / 4 Ref Frames
Format settings, CABAC : Yes
Format settings, Reference frames : 4 frames
Codec ID : V_MPEG4/ISO/AVC
Duration : 1 h 43 min
Bit rate : 18.8 Mb/s
Width : 1 920 pixels
Height : 1 080 pixels
Display aspect ratio : 16:9
Frame rate mode : Constant
Frame rate : 24.000 FPS
Color space : YUV
Chroma subsampling : 4:2:0
Bit depth : 8 bits
Scan type : Progressive
Bits/(Pixel*Frame) : 0.378
Stream size : 13.5 GiB (83%)
Writing library : x264 core 164 r3075 66a5bc1
Encoding settings : cabac=1 / ref=4 / deblock=1:-3:-3 / analyse=0x3:0x133 / me=umh / subme=10 / psy=1 / psy_rd=1.00:0.15 / mixed_ref=1 / me_range=24 / chroma_me=1 / trellis=2 / 8x8dct=1 / cqm=0 / deadzone=21,11 / fast_pskip=1 / chroma_qp_offset=-3 / threads=18 / lookahead_threads=3 / sliced_threads=0 / nr=0 / decimate=1 / interlaced=0 / bluray_compat=0 / constrained_intra=0 / bframes=8 / b_pyramid=2 / b_adapt=2 / b_bias=0 / direct=3 / weightb=1 / open_gop=0 / weightp=2 / keyint=250 / keyint_min=24 / scenecut=40 / intra_refresh=0 / rc_lookahead=60 / rc=crf / mbtree=1 / crf=21.5 / qcomp=0.60 / qpmin=0 / qpmax=69 / qpstep=4 / ip_ratio=1.40 / aq=3:0.50
Language : English
Default : Yes
Forced : No
Color range : Limited
Matrix coefficients : BT.709

Audio #1
ID : 2
Format : AC-3
Format/Info : Audio Coding 3
Commercial name : Dolby Digital
Codec ID : A_AC3
Duration : 1 h 42 min
Bit rate mode : Constant
Bit rate : 640 kb/s
Channel(s) : 6 channels
Channel layout : L R C LFE Ls Rs
Sampling rate : 48.0 kHz
Frame rate : 31.250 FPS (1536 SPF)
Compression mode : Lossy
Stream size : 471 MiB (3%)
Title : Cantonese
Language : Chinese
Service kind : Complete Main
Default : Yes
Forced : No

Audio #2
ID : 3
Format : AC-3
Format/Info : Audio Coding 3
Commercial name : Dolby Digital
Codec ID : A_AC3
Duration : 1 h 42 min
Bit rate mode : Constant
Bit rate : 384 kb/s
Channel(s) : 2 channels
Channel layout : L R
Sampling rate : 48.0 kHz
Frame rate : 31.250 FPS (1536 SPF)
Compression mode : Lossy
Stream size : 283 MiB (2%)
Title : Mandarin (Original HK Version)
Language : Chinese
Service kind : Complete Main
Default : No
Forced : No

Audio #3
ID : 4
Format : AC-3
Format/Info : Audio Coding 3
Commercial name : Dolby Digital
Codec ID : A_AC3
Duration : 1 h 42 min
Bit rate mode : Constant
Bit rate : 384 kb/s
Channel(s) : 2 channels
Channel layout : L R
Sampling rate : 48.0 kHz
Frame rate : 31.250 FPS (1536 SPF)
Compression mode : Lossy
Stream size : 283 MiB (2%)
Title : Mandarin (Original Mainland Version)
Language : Chinese
Service kind : Complete Main
Default : No
Forced : No

Audio #4
ID : 5
Format : DTS XLL
Format/Info : Digital Theater Systems
Commercial name : DTS-HD Master Audio
Codec ID : A_DTS
Duration : 1 h 42 min
Bit rate mode : Variable
Bit rate : 2 409 kb/s
Channel(s) : 6 channels
Channel layout : C L R Ls Rs LFE
Sampling rate : 48.0 kHz
Frame rate : 93.750 FPS (512 SPF)
Bit depth : 16 bits
Compression mode : Lossless
Stream size : 1.73 GiB (11%)
Title : Mandarin (Rerelease Version)
Language : Chinese
Default : No
Forced : No

Text #1
ID : 6
Format : UTF-8
Codec ID : S_TEXT/UTF8
Codec ID/Info : UTF-8 Plain Text
Duration : 1 h 41 min
Bit rate : 49 b/s
Count of elements : 1109
Stream size : 36.5 KiB (0%)
Title : English (Tai Seng DVD)
Language : English
Default : Yes
Forced : Yes

Text #2
ID : 7
Format : UTF-8
Codec ID : S_TEXT/UTF8
Codec ID/Info : UTF-8 Plain Text
Duration : 1 h 41 min
Bit rate : 41 b/s
Count of elements : 1184
Stream size : 30.8 KiB (0%)
Title : English
Language : English
Default : No
Forced : No

Text #3
ID : 8
Format : PGS
Muxing mode : zlib
Codec ID : S_HDMV/PGS
Codec ID/Info : Picture based subtitle format used on BDs/HD-DVDs
Duration : 1 h 41 min
Bit rate : 16.2 kb/s
Count of elements : 2317
Stream size : 11.7 MiB (0%)
Title : English
Language : English
Default : No
Forced : No

Text #4
ID : 9
Format : PGS
Muxing mode : zlib
Codec ID : S_HDMV/PGS
Codec ID/Info : Picture based subtitle format used on BDs/HD-DVDs
Duration : 1 h 41 min
Bit rate : 10.5 kb/s
Count of elements : 2060
Stream size : 7.61 MiB (0%)
Title : Korean
Language : Korean
Default : No
Forced : No

Menu
00:00:00.000 : en:00:00:00.000
00:08:30.417 : en:00:08:30.417
00:13:10.417 : en:00:13:10.417
00:21:18.417 : en:00:21:18.417
00:29:48.417 : en:00:29:48.417
00:37:08.417 : en:00:37:08.417
00:47:05.417 : en:00:47:05.417
00:54:04.417 : en:00:54:04.417
01:08:53.417 : en:01:08:53.417
01:17:18.417 : en:01:17:18.417
01:25:17.000 : en:01:25:17.000
01:32:16.417 : en:01:32:16.417





1 个附件 售价 大小 下载 时间

Dragon.Inn.1992.PROPER.1080p.BluRay.x264-USURY.torrent 0 金币 21.12K 5502 次 1月前

#1楼
发帖时间:2021-11-29 19:08:49   |   回复数:5
popeye69
一派掌门
谢谢楼主分享。
1月前 #2楼
igefcufppt
武林高手
谢谢分享好片
1月前 #3楼
Jasongreat
武林盟主
多谢楼主的分享啦,片子还是挺经典的
1月前 #4楼
jokingcheung
一代宗师
谢谢分享
1月前 #5楼
liyouchai
隐世仙人♂
谢谢楼主分享资源
1月前 #6楼
游客组