squallzhao
一代宗师

[更 早] [欧美] [剧情] [WEB-1080P] 喧闹一家亲:圣诞节大冒险!/喧闹一家亲(真人版) A.Loud.House.Christmas.2021.1080p.WEB.h264-RUMOUR 5.74G

-->

帖子完整标题:喧闹一家亲:圣诞节大冒险!/喧闹一家亲(真人版) A.Loud.House.Christmas.2021.1080p.WEB.h264-RUMOUR 5.74GB



◎译  名 喧闹一家亲:圣诞节大冒险!/喧闹一家亲(真人版)
◎片  名 The Loud House: A Very Loud Christmas!
◎年  代 2021
◎产  地 美国
◎类  别 剧情 / 喜剧 / 冒险
◎语  言 英语
◎上映日期 2021-11-26(美国)
◎豆瓣评分 /10 from 0 users
◎豆瓣链接 https://movie.douban.com/subject/35576244/
◎导  演 乔纳森·扎治 Jonathan Judge
◎编  剧 克里斯·萨维诺 Chris Savino
◎主  演 布赖恩·斯特帕尼克 Brian Stepanek
      布瑞恩韦德 Brian Wade
      凯萨琳·塔柏 Catherine Taber
      莱希·德贝内代托 Lexi DiBenedetto
      杰齐尔·布鲁诺 Jahzir Bruno
      吉尔·简·克莱门茨 Jill Jane Clements

◎简  介

  暂无相关剧情介绍

Video
ID : 1
Format : AVC
Format/Info : Advanced Video Codec
Format profile : [email protected]
Format settings : CABAC / 4 Ref Frames
Format settings, CABAC : Yes
Format settings, Reference frames : 4 frames
Codec ID : V_MPEG4/ISO/AVC
Duration : 1 h 4 min
Bit rate : 12.0 Mb/s
Width : 1 920 pixels
Height : 1 080 pixels
Display aspect ratio : 16:9
Frame rate mode : Constant
Frame rate : 24.000 FPS
Color space : YUV
Chroma subsampling : 4:2:0
Bit depth : 8 bits
Scan type : Progressive
Bits/(Pixel*Frame) : 0.242
Stream size : 5.45 GiB (95%)
Language : English
Default : Yes
Forced : No
Color range : Limited
Color primaries : BT.709
Transfer characteristics : BT.709
Matrix coefficients : BT.709

Audio
ID : 2
Format : E-AC-3
Format/Info : Enhanced AC-3
Commercial name : Dolby Digital Plus
Codec ID : A_EAC3
Duration : 1 h 4 min
Bit rate mode : Constant
Bit rate : 640 kb/s
Channel(s) : 6 channels
Channel layout : L R C LFE Ls Rs
Sampling rate : 48.0 kHz
Frame rate : 31.250 FPS (1536 SPF)
Compression mode : Lossy
Stream size : 297 MiB (5%)
Language : English
Service kind : Complete Main
Default : Yes
Forced : No

Text
ID : 3
Format : UTF-8
Codec ID : S_TEXT/UTF8
Codec ID/Info : UTF-8 Plain Text
Duration : 1 h 4 min
Bit rate : 95 b/s
Count of elements : 1523
Stream size : 45.1 KiB (0%)
Title : English
Language : English
Default : No
Forced : No





1 个附件 售价 大小 下载 时间

A.Loud.House.Christmas.2021.1080p.WEB.h264-RUMOUR.torrent 0 金币 15.09K 511 次 8月前

#1楼
发帖时间:2021-11-29 18:14:39   |   回复数:1
popeye69
一派掌门
谢谢楼主分享。
8月前 #2楼
游客组