squallzhao
一代宗师

[更 早] [其他] [剧情] [WEB-1080P] 最后的决斗/最后的对决 The.Last.Duel.2021.1080p.WEBRip.DD2.0.x264-NOGRP 5.80GB

-->

帖子完整标题:最后的决斗/最后的对决 The.Last.Duel.2021.1080p.WEBRip.DD2.0.x264-NOGRP 5.80GB



◎译  名 最后的决斗/最后的对决/最後絕鬥(港)/终极决斗
◎片  名 The Last Duel
◎年  代 2021
◎产  地 美国,英国
◎类  别 剧情 / 历史
◎语  言 英语
◎上映日期 2021-09-10(威尼斯电影节) / 2021-10-15(美国)
◎豆瓣评分 8.6/10 from 1893 users
◎豆瓣链接 https://movie.douban.com/subject/34658290/
◎片  长 152分钟
◎导  演 雷德利·斯科特 Ridley Scott
◎编  剧 本·阿弗莱克 Ben Affleck / 马特·达蒙 Matt Damon / 妮可·哈罗芬瑟 Nicole Holofcener / 埃里克·贾格 Eric Jager
◎主  演 朱迪·科默 Jodie Comer
      马特·达蒙 Matt Damon
      本·阿弗莱克 Ben Affleck
      亚当·德赖弗 Adam Driver
      哈丽特·瓦尔特 Harriet Walter
      泽利科·伊万内克 Zeljko Ivanek
      埃里克斯·劳瑟 Alex Lawther
      内森奈尔·帕克 Nathaniel Parker
      克里夫·罗素 Clive Russell
      迈克尔·麦克埃尔哈顿 Michael McElhatton
      山姆·哈兹尔丁 Sam Hazeldine
      朱利安·弗思 Julian Firth
      勃斯科·霍根 Bosco Hogan
      卡伊姆赫·O'马莉 Caoimhe O'Malley
      伊恩·皮里 Ian Pirie
      柔伊·布鲁诺 Zoé Bruneau
      保罗·班迪 Paul Bandey
      布莱恩F.穆尔维 Brian F. Mulvey

◎标  签 历史 | 剧情 | 美国 | 2021 | 战争 | 电影 | 动作 | 英国

◎简  介

  这场复仇围绕着达蒙、阿弗莱克饰演的一对最好的朋友展开。诺曼骑士Jean de Carrouges和乡绅Jacques Le Gris是最好的朋友。然而Jean战争归来后却指控Jacques强奸了他的妻子Margerite de Carrouges(科默饰)。没有人相信这个女子的遭遇,Jean向法国国王请愿,取消维护Jacques的伯爵Pierre d’Anencon的决定。而传递下来的国王决定是让这对好友决一死战。活着的人即为胜利者,这也将成为上帝的旨意。而如果Jean失败了,她的妻子将被焚烧,作为她“诬告”Jacques的惩罚。

Video
ID : 1
Format : AVC
Format/Info : Advanced Video Codec
Format profile : [email protected]
Format settings : CABAC / 4 Ref Frames
Format settings, CABAC : Yes
Format settings, Reference frames : 4 frames
Codec ID : V_MPEG4/ISO/AVC
Duration : 2 h 31 min
Bit rate : 5 085 kb/s
Width : 1 920 pixels
Height : 800 pixels
Display aspect ratio : 2.40:1
Frame rate mode : Constant
Frame rate : 29.970 (30000/1001/189150) FPS
Color space : YUV
Chroma subsampling : 4:2:0
Bit depth : 8 bits
Scan type : Progressive
Bits/(Pixel*Frame) : 0.110
Stream size : 5.39 GiB (93%)
Language : English
Default : Yes
Forced : No
Color range : Limited
Color primaries : BT.709
Transfer characteristics : BT.709
Matrix coefficients : BT.709

Audio
ID : 2
Format : AC-3
Format/Info : Audio Coding 3
Commercial name : Dolby Digital
Codec ID : A_AC3
Duration : 2 h 31 min
Bit rate mode : Constant
Bit rate : 384 kb/s
Channel(s) : 6 channels
Channel layout : L R C LFE Ls Rs
Sampling rate : 48.0 kHz
Frame rate : 31.250 FPS (1536 SPF)
Compression mode : Lossy
Stream size : 417 MiB (7%)
Language : English
Service kind : Complete Main
Default : Yes
Forced : No





1 个附件 售价 大小 下载 时间

The.Last.Duel.2021.1080p.WEBRip.DD2.0.x264-NOGRP.torrent 0 金币 15.12K 3773 次 1月前

#1楼
发帖时间:2021-11-29 18:09:01   |   回复数:3
squirrel758
小有名气
这个还没出字幕呢吧,先等等,要不然看着累。
1月前 #2楼
popeye69
一派掌门
谢谢楼主分享。
1月前 #3楼
show55667878
武林高手
感謝分享這電影
1月前 #4楼
游客组