topgood
一派掌门

[更 早] [欧美] [动作] [BD-1080P] 狂风沙/无法无天 American.Outlaws.2001.1080p.BluRay.x264-YAMG 10.61GB

-->

帖子完整标题:狂风沙/无法无天 American.Outlaws.2001.1080p.BluRay.x264-YAMG 10.61GB



◎译  名 狂风沙/无法无天/美国流氓
◎片  名 American Outlaws
◎年  代 2001
◎产  地 美国
◎类  别 动作 / 西部
◎语  言 英语
◎上映日期 2001-08-17
◎豆瓣评分 6.8/10 from 314 users
◎豆瓣链接 https://movie.douban.com/subject/1305409/
◎片  长 94 分钟
◎导  演 莱斯·梅菲尔德 Les Mayfield
◎编  剧 约翰·罗杰斯 John Rogers
◎主  演 科林·法瑞尔 Colin Farrell
      斯科特·凯恩 Scott Caan
      艾丽·拉特 Ali Larter
      盖布瑞·马赫特 Gabriel Macht
      格里高利·史密斯 Gregory Smith
      哈里斯·于林 Harris Yulin
      约翰尼·巴蒂 Johnny Bartee
      Lane Thomas Wilson Lane Thomas Wilson
      Steve Crawford Steve Crawford
      凯西·贝茨 Kathy Bates
      特洛伊·迪林格 Troy Dillinger
      Marvin Schroeder Marvin Schroeder
      罗尼·考克斯 Ronny Cox
      克里斯·华纳 Chris Warner
      缪斯·沃森 Muse Watson
      特瑞·欧奎恩 Terry O'Quinn
      Barry Tubb Barry Tubb
      纳森尼尔·阿坎德 Nathaniel Arcand
      Steven Bland Steven Bland
      Ty O'Neal Ty O'Neal
      布拉德·利兰 Brad Leland
      理查德·琼斯 Richard Jones
      Ed Geldart Ed Geldart
      杰里米·丹茨林格 Jeremy Denzlinger
      Big Skinny Brown Big Skinny Brown
      达里尔·考克斯 Darryl Cox
      提摩西·道尔顿 Timothy Dalton

◎标  签 西部片 | 美国 | 西部 | 科林·法瑞尔 | ColinFarrell | 美国电影 | 犯罪 | 电影

◎简  介

  故事讲述的是在美国内战期间,当地的一些农民们离开密苏里州的一个名叫利布提(Liberty)的小镇时,还是一群孩子。4年后,他们作为战败的南方人回到自己的家乡,想重新开始他们以前的生活----耕种土地、养家活口,此时他们已是一群强壮的汉子了。
  
  但是,“回家”的梦景是多么的短暂:杰西-詹姆斯(Jesse James,科林-法瑞尔饰,Colin Farrell)和他的弟弟弗兰克-詹姆斯(Frank James,加布里埃尔-麦希特饰,Gabriel Macht),科尔和鲍勃-扬格兄弟(Cole and Bob Younger,斯科特-坎Scott Caan和维尔-麦考马克Will Mccormack分别饰演)以及他们信得过的朋友科马奇-汤姆(Comanche Tom,纳撒尼尔-阿卡德饰,Nathaniel Arcand)回到他们久违的家乡时,发现那儿已被联邦军队占领了。与此同时,财大气粗的铁路巨头撒迪厄斯-瑞恩斯(Thaddeus Rains,哈里斯-尤林饰,Harris Yulin)的石岛铁路公司正在向西拓展,该公司强迫农民们以不合理的低价将他们世代的家园出卖。更糟的是,恶名远扬的艾伦-平克顿(Allan Pinkerton,提莫西-多尔顿饰,Timothy Dalton)私人侦探公司也竭尽全力帮助这个铁路公司欺压这些无辜的平民。
  
  这一小群退役的士兵们为了共同的利益而团结起来,开始了保卫家园,与东海岸资本家作斗争反叛之路。“詹姆斯-扬格"五兄弟以及吉姆-杨格(Jim Younger,格雷戈里-史密斯饰,Gregory Smith)、克莱-米勒(Clell Miller,TY-奥尼尔饰,TY O'Neal)、朗尼-帕克伍德(Loni Packwood,乔-史蒂文斯饰,Joe Stevens)等,与铁路公司的血海深仇逼使他们走上了一条踏遍整个西部的征程。他们要向铁路公司最要害的地方下手,阻止他们无法无天地铺设铁路。起初,他们的对手低估了他们,但“詹姆斯-扬格”的这帮兄弟们毁坏铁路供应线、颠覆铁轨、抢劫公司存储薪水的银行,无所不为。他们证明了,他们才是彻头彻尾的无法无天之徒。
  
  这些无法无天之徒将掠夺来的财物与人们分享,在人民心中成为了受人尊敬的英雄。但是这帮人毫无节制的报复不可避免地使杰西-詹姆斯失去了他的真爱----家乡美丽的齐-米米(Zee Mimms,艾丽-拉特饰,Ali Larter)。他的名声也是越来越坏,这使得帮派内也发生了冲突--这个冲突并不亚于他们的敌人艾伦-平克顿,足以威胁到他们的生存。

Video
ID : 1
Format : AVC
Format/Info : Advanced Video Codec
Format profile : [email protected]
Format settings : CABAC / 4 Ref Frames
Format settings, CABAC : Yes
Format settings, Reference frames : 4 frames
Codec ID : V_MPEG4/ISO/AVC
Duration : 1 h 34 min
Bit rate : 13.8 Mb/s
Width : 1 916 pixels
Height : 1 036 pixels
Display aspect ratio : 1.85:1
Frame rate mode : Constant
Frame rate : 23.976 (24000/1001/189150) FPS
Color space : YUV
Chroma subsampling : 4:2:0
Bit depth : 8 bits
Scan type : Progressive
Bits/(Pixel*Frame) : 0.290
Stream size : 9.07 GiB (86%)
Writing library : x264 core 164 r3065 ae03d92
Encoding settings : cabac=1 / ref=4 / deblock=1:-3:-3 / analyse=0x3:0x133 / me=umh / subme=10 / psy=1 / psy_rd=1.00:0.00 / mixed_ref=1 / me_range=32 / chroma_me=1 / trellis=2 / 8x8dct=1 / cqm=0 / deadzone=21,11 / fast_pskip=0 / chroma_qp_offset=-2 / threads=24 / lookahead_threads=4 / sliced_threads=0 / nr=0 / decimate=0 / interlaced=0 / bluray_compat=0 / constrained_intra=0 / bframes=8 / b_pyramid=2 / b_adapt=2 / b_bias=0 / direct=3 / weightb=1 / open_gop=0 / weightp=2 / keyint=250 / keyint_min=23 / scenecut=40 / intra_refresh=0 / rc=crf / mbtree=0 / crf=18.0 / qcomp=0.60 / qpmin=0 / qpmax=69 / qpstep=4 / ip_ratio=1.40 / pb_ratio=1.30 / aq=3:0.60
Language : English
Default : Yes
Forced : No
Color range : Limited
Matrix coefficients : BT.709

Audio
ID : 2
Format : DTS XLL
Format/Info : Digital Theater Systems
Commercial name : DTS-HD Master Audio
Codec ID : A_DTS
Duration : 1 h 34 min
Bit rate mode : Variable
Bit rate : 2 282 kb/s
Channel(s) : 6 channels
Channel layout : C L R Ls Rs LFE
Sampling rate : 48.0 kHz
Frame rate : 93.750 FPS (512 SPF)
Bit depth : 24 bits
Compression mode : Lossless
Stream size : 1.50 GiB (14%)
Title : English
Language : English
Default : Yes
Forced : No

Text #1
ID : 3
Format : UTF-8
Codec ID : S_TEXT/UTF8
Codec ID/Info : UTF-8 Plain Text
Duration : 1 h 29 min
Bit rate : 65 b/s
Count of elements : 1355
Stream size : 43.1 KiB (0%)
Title : English
Language : English
Default : No
Forced : No

Text #2
ID : 4
Format : UTF-8
Codec ID : S_TEXT/UTF8
Codec ID/Info : UTF-8 Plain Text
Duration : 1 h 29 min
Bit rate : 69 b/s
Count of elements : 1475
Stream size : 45.6 KiB (0%)
Title : English SDH
Language : English
Default : No
Forced : No

Text #3
ID : 5
Format : UTF-8
Codec ID : S_TEXT/UTF8
Codec ID/Info : UTF-8 Plain Text
Duration : 1 h 33 min
Bit rate : 52 b/s
Count of elements : 1272
Stream size : 35.9 KiB (0%)
Title : French
Language : French
Default : No
Forced : No

Text #4
ID : 6
Format : PGS
Muxing mode : zlib
Codec ID : S_HDMV/PGS
Codec ID/Info : Picture based subtitle format used on BDs/HD-DVDs
Duration : 1 h 29 min
Bit rate : 37.5 kb/s
Count of elements : 2950
Stream size : 24.1 MiB (0%)
Title : English SDH PGS
Language : English
Default : No
Forced : No

Text #5
ID : 7
Format : PGS
Muxing mode : zlib
Codec ID : S_HDMV/PGS
Codec ID/Info : Picture based subtitle format used on BDs/HD-DVDs
Duration : 1 h 33 min
Bit rate : 27.0 kb/s
Count of elements : 2544
Stream size : 18.0 MiB (0%)
Title : French PGS
Language : French
Default : No
Forced : No

Text #6
ID : 8
Format : PGS
Muxing mode : zlib
Codec ID : S_HDMV/PGS
Codec ID/Info : Picture based subtitle format used on BDs/HD-DVDs
Duration : 1 h 33 min
Bit rate : 31.3 kb/s
Count of elements : 2146
Stream size : 20.9 MiB (0%)
Title : Spanish PGS
Language : Spanish
Default : No
Forced : No

Text #7
ID : 9
Format : PGS
Muxing mode : zlib
Codec ID : S_HDMV/PGS
Codec ID/Info : Picture based subtitle format used on BDs/HD-DVDs
Duration : 53 min 7 s
Bit rate : 517 b/s
Count of elements : 20
Stream size : 202 KiB (0%)
Title : Spanish Forced PGS
Language : Spanish
Default : No
Forced : No

Menu
00:00:00.000 : Chapter 01
00:10:01.392 : Chapter 02
00:20:01.325 : Chapter 03
00:30:02.342 : Chapter 04
00:40:02.567 : Chapter 05
00:50:03.542 : Chapter 06
01:00:03.683 : Chapter 07
01:10:04.450 : Chapter 08
01:20:05.634 : Chapter 09
01:30:05.859 : Chapter 10
01:34:13.857 : Chapter 11





1 个附件 售价 大小 下载 时间

American.Outlaws.2001.1080p.BluRay.x264-YAMG.torrent 0 金币 13.99K 693 次 1月前

#1楼
发帖时间:2021-11-29 14:20:36   |   回复数:1
popeye69
一派掌门
感谢楼主分享。
1月前 #2楼
游客组