topgood
一派掌门

[更 早] [欧美] [剧情] [BD-1080P] 冰人四万年 Iceman.1984.iNTERNAL.1080p.BluRay.x264-YAMG 14.14GB

-->

帖子完整标题:冰人四万年 Iceman.1984.iNTERNAL.1080p.BluRay.x264-YAMG 14.14GB



◎译  名 冰人四万年
◎片  名 Iceman
◎年  代 1984
◎产  地 美国
◎类  别 剧情 / 科幻
◎语  言 英语
◎上映日期 1984-04-13
◎豆瓣评分 7.7/10 from 1555 users
◎豆瓣链接 https://movie.douban.com/subject/1300869/
◎片  长 100 分钟
◎导  演 弗雷德·谢皮西 Fred Schepisi
◎编  剧 奇普·普罗瑟 Chip Proser / John Drimmer John Drimmer
◎主  演 尊龙 John Lone
      蒂莫西·赫顿 Timothy Hutton
      林赛·克洛斯 Lindsay Crouse
      约瑟夫·索默 Josef Sommer
      大卫·斯特雷泽恩 David Strathairn
      丹尼·格洛弗 Danny Glover
      Richard Monette Richard Monette
      詹姆斯·托根 James Tolkan
      斯蒂芬·E·米勒 Stephen E. Miller
      Réal Andrews Réal Andrews
      菲利普·阿金 Philip Akin

◎标  签 尊龙 | 科幻 | 美国 | 人性 | 自然 | 剧情 | 1984 | 美国电影

◎简  介

  史坦利夏柏德(蒂莫西·赫顿 饰)率领的北极探险队发掘了一个4000年前冰结冰人(尊龙 饰 ),并将他带回文明社会。史坦利夏柏德想接近该冰人以了解人类的过去。而其他队员的则想借着解剖冰人以了解人体细胞生长的奥秘。

Video
ID : 1
Format : AVC
Format/Info : Advanced Video Codec
Format profile : [email protected]
Format settings : CABAC / 5 Ref Frames
Format settings, CABAC : Yes
Format settings, Reference frames : 5 frames
Codec ID : V_MPEG4/ISO/AVC
Duration : 1 h 40 min
Bit rate : 19.3 Mb/s
Width : 1 920 pixels
Height : 816 pixels
Display aspect ratio : 2.35:1
Frame rate mode : Constant
Frame rate : 23.976 (24000/1001/189150) FPS
Color space : YUV
Chroma subsampling : 4:2:0
Bit depth : 8 bits
Scan type : Progressive
Bits/(Pixel*Frame) : 0.515
Stream size : 13.6 GiB (96%)
Writing library : x264 core 164 r3065 ae03d92
Encoding settings : cabac=1 / ref=5 / deblock=1:-3:-3 / analyse=0x3:0x133 / me=umh / subme=10 / psy=1 / psy_rd=1.00:0.00 / mixed_ref=1 / me_range=32 / chroma_me=1 / trellis=2 / 8x8dct=1 / cqm=0 / deadzone=21,11 / fast_pskip=0 / chroma_qp_offset=-2 / threads=24 / lookahead_threads=4 / sliced_threads=0 / nr=0 / decimate=0 / interlaced=0 / bluray_compat=0 / constrained_intra=0 / bframes=8 / b_pyramid=2 / b_adapt=2 / b_bias=0 / direct=3 / weightb=1 / open_gop=0 / weightp=2 / keyint=250 / keyint_min=23 / scenecut=40 / intra_refresh=0 / rc=crf / mbtree=0 / crf=17.0 / qcomp=0.60 / qpmin=0 / qpmax=69 / qpstep=4 / ip_ratio=1.40 / pb_ratio=1.30 / aq=3:0.60
Language : English
Default : Yes
Forced : No
Color range : Limited
Matrix coefficients : BT.709

Audio #1
ID : 2
Format : FLAC
Format/Info : Free Lossless Audio Codec
Codec ID : A_FLAC
Duration : 1 h 40 min
Bit rate mode : Variable
Bit rate : 521 kb/s
Channel(s) : 2 channels
Channel layout : L R
Sampling rate : 48.0 kHz
Frame rate : 11.719 FPS (4096 SPF)
Bit depth : 16 bits
Compression mode : Lossless
Stream size : 375 MiB (3%)
Title : English
Writing library : libFLAC 1.3.3 (UTC 2019-08-04)
Language : English
Default : Yes
Forced : No

Audio #2
ID : 3
Format : AAC LC
Format/Info : Advanced Audio Codec Low Complexity
Codec ID : A_AAC-2
Duration : 1 h 40 min
Bit rate : 111 kb/s
Channel(s) : 2 channels
Channel layout : L R
Sampling rate : 48.0 kHz
Frame rate : 46.875 FPS (1024 SPF)
Compression mode : Lossy
Delay relative to video : 20 ms
Stream size : 80.1 MiB (1%)
Title : Audio Commentary by Director Fred Schepisi
Language : English
Default : No
Forced : No

Audio #3
ID : 4
Format : AAC LC
Format/Info : Advanced Audio Codec Low Complexity
Codec ID : A_AAC-2
Duration : 1 h 40 min
Bit rate : 113 kb/s
Channel(s) : 2 channels
Channel layout : L R
Sampling rate : 48.0 kHz
Frame rate : 46.875 FPS (1024 SPF)
Compression mode : Lossy
Delay relative to video : 20 ms
Stream size : 81.2 MiB (1%)
Title : Audio Commentary by Film Historian and Critic Peter Tonguette
Language : English
Default : No
Forced : No

Text #1
ID : 5
Format : UTF-8
Codec ID : S_TEXT/UTF8
Codec ID/Info : UTF-8 Plain Text
Duration : 1 h 35 min
Bit rate : 39 b/s
Count of elements : 877
Stream size : 27.8 KiB (0%)
Title : English
Language : English
Default : No
Forced : No

Text #2
ID : 6
Format : PGS
Muxing mode : zlib
Codec ID : S_HDMV/PGS
Codec ID/Info : Picture based subtitle format used on BDs/HD-DVDs
Duration : 1 h 35 min
Bit rate : 21.0 kb/s
Count of elements : 1564
Stream size : 14.3 MiB (0%)
Title : English PGS
Language : English
Default : No
Forced : No

Menu
00:00:00.000 : Chapter 01
00:09:52.217 : Chapter 02
00:23:48.552 : Chapter 03
00:33:43.730 : Chapter 04
00:48:28.280 : Chapter 05
01:00:01.139 : Chapter 06
01:12:23.673 : Chapter 07
01:24:21.848 : Chapter 08





1 个附件 售价 大小 下载 时间

Iceman.1984.iNTERNAL.1080p.BluRay.x264-YAMG.torrent 0 金币 18.39K 763 次 1月前

#1楼
发帖时间:2021-11-29 14:06:38   |   回复数:2
popeye69
一派掌门
感谢楼主分享。
1月前 #2楼
kola13
武林盟主
感谢分享
1月前 #3楼
游客组