fg603603
一代宗师

[2014] [日本] [剧情] [BD-1080P] 魔女宅急便 真人版 Kikis.Delivery.Service.2014.1080p.BluRay.x264-YAMG 10.60GB

-->

帖子完整标题:魔女宅急便 真人版 Kikis.Delivery.Service.2014.1080p.BluRay.x264-YAMG 10.60GB



◎译  名 魔女宅急便 真人版/Kiki's Delivery Service/Majo no Takkyūbin
◎片  名 魔女の宅急便
◎年  代 2014
◎产  地 日本
◎类  别 剧情 / 奇幻
◎语  言 日语
◎上映日期 2014-03-01(日本)
◎豆瓣评分 5.7/10 from 3079 users
◎豆瓣链接 https://movie.douban.com/subject/24321268/
◎片  长 108分钟
◎导  演 清水崇 Takashi Shimizu
◎编  剧 奥寺佐渡子 Satoko Okudera / 清水崇 Takashi Shimizu / 角野荣子 Eiko Kadono
◎主  演 小芝风花 Fuka Koshiba
      尾野真千子 Machiko Ono
      山本浩司 Hiroshi Yamamoto
      广田亮平 Ryohei Hirota
      宫泽理惠 Rie Miyazawa
      筒井道隆 Michitaka Tsutsui
      浅野忠信 Tadanobu Asano
      横沟菜帆 Naho Yokomizo
      井上琳水 Rinna Inoue
      寿美菜子 Minako Kotobuki
      吉田羊 Y? Yoshida
      清水美里 Misato Shimizu
      原凉子 Suzuko Hara
      新井浩文 Hirofumi Arai
      若山耀人 Kirato Wakayama

◎标  签 日本 | 漫画改编 | 2014 | 真人版 | 奇幻 | 魔幻 | 青春 | 成长

◎简  介

  在相信魔法存在的东方,从小梦想成为魔女的琪琪(小芝风花 饰)终于迎来了13岁的月圆之夜。她带着黑猫吉吉(寿美菜子 配音),告别了爸爸(筒井道隆 饰)妈妈(宫泽理惠 饰),带着祝福踏上了为期一年的修业之旅。历经艰辛,琪琪看中了伫立在大海中央的港口城市克里克,面带笑容的她得到了经营面包房的索娜阿姨(尾野真千子 饰)的接纳,于是决定在这里开展她的快递送货业务。在此期间,她与热爱飞行器的少年蜻蜓(广田亮平 饰)误会,也通过送货结交了许多朋友。谁知动物园小河马患病的消息,却让她背负上诅咒的恶名。忧心忡忡的琪琪,突然丧失了飞翔的能力……
  
  本片根据角野荣子的同名原作改编,此前该作品曾被宫崎骏拍成动画搬上银幕。

Video
ID : 1
Format : AVC
Format/Info : Advanced Video Codec
Format profile : [email protected]
Format settings : CABAC / 4 Ref Frames
Format settings, CABAC : Yes
Format settings, Reference frames : 4 frames
Codec ID : V_MPEG4/ISO/AVC
Duration : 1 h 48 min
Bit rate : 10.7 Mb/s
Width : 1 920 pixels
Height : 1 036 pixels
Display aspect ratio : 1.85:1
Frame rate mode : Constant
Frame rate : 23.976 (24000/1001/189150) FPS
Color space : YUV
Chroma subsampling : 4:2:0
Bit depth : 8 bits
Scan type : Progressive
Bits/(Pixel*Frame) : 0.224
Stream size : 8.10 GiB (76%)
Writing library : x264 core 164 r3065 ae03d92
Encoding settings : cabac=1 / ref=4 / deblock=1:-3:-3 / analyse=0x3:0x133 / me=umh / subme=10 / psy=1 / psy_rd=1.00:0.00 / mixed_ref=1 / me_range=32 / chroma_me=1 / trellis=2 / 8x8dct=1 / cqm=0 / deadzone=21,11 / fast_pskip=0 / chroma_qp_offset=-2 / threads=24 / lookahead_threads=4 / sliced_threads=0 / nr=0 / decimate=0 / interlaced=0 / bluray_compat=0 / constrained_intra=0 / bframes=8 / b_pyramid=2 / b_adapt=2 / b_bias=0 / direct=3 / weightb=1 / open_gop=0 / weightp=2 / keyint=250 / keyint_min=23 / scenecut=40 / intra_refresh=0 / rc=crf / mbtree=0 / crf=18.0 / qcomp=0.60 / qpmin=0 / qpmax=69 / qpstep=4 / ip_ratio=1.40 / pb_ratio=1.30 / aq=3:0.60
Language : English
Default : Yes
Forced : No
Color range : Limited
Matrix coefficients : BT.709

Audio
ID : 2
Format : FLAC
Format/Info : Free Lossless Audio Codec
Codec ID : A_FLAC
Duration : 1 h 48 min
Bit rate mode : Variable
Bit rate : 3 285 kb/s
Channel(s) : 6 channels
Channel layout : L R C LFE Ls Rs
Sampling rate : 48.0 kHz
Frame rate : 11.719 FPS (4096 SPF)
Bit depth : 24 bits
Compression mode : Lossless
Stream size : 2.49 GiB (24%)
Title : Japanese
Writing library : libFLAC 1.3.3 (UTC 2019-08-04)
Language : Japanese
Default : Yes
Forced : No

Text #1
ID : 3
Format : UTF-8
Codec ID : S_TEXT/UTF8
Codec ID/Info : UTF-8 Plain Text
Duration : 1 h 48 min
Bit rate : 28 b/s
Count of elements : 1116
Stream size : 22.8 KiB (0%)
Title : English Forced
Language : English
Default : Yes
Forced : Yes

Text #2
ID : 4
Format : PGS
Muxing mode : zlib
Codec ID : S_HDMV/PGS
Codec ID/Info : Picture based subtitle format used on BDs/HD-DVDs
Duration : 1 h 48 min
Bit rate : 20.1 kb/s
Count of elements : 2218
Stream size : 15.5 MiB (0%)
Title : English Forced PGS
Language : English
Default : No
Forced : No

Text #3
ID : 5
Format : PGS
Muxing mode : zlib
Codec ID : S_HDMV/PGS
Codec ID/Info : Picture based subtitle format used on BDs/HD-DVDs
Duration : 1 h 48 min
Bit rate : 21.3 kb/s
Count of elements : 2198
Stream size : 16.5 MiB (0%)
Title : Thai PGS
Language : Thai
Default : No
Forced : No

Menu
00:00:00.000 : Chapter 01
00:08:16.496 : Chapter 02
00:18:25.271 : Chapter 03
00:27:46.582 : Chapter 04
00:37:20.447 : Chapter 05
00:47:32.141 : Chapter 06
00:56:04.319 : Chapter 07
01:06:37.827 : Chapter 08
01:15:36.907 : Chapter 09
01:24:19.221 : Chapter 10
01:35:08.578 : Chapter 11
01:44:46.739 : Chapter 12





1 个附件 售价 大小 下载 时间

Kikis.Delivery.Service.2014.1080p.BluRay.x264-YAMG.torrent 0 金币 14.00K 987 次 1月前

#1楼
发帖时间:2021-11-29 12:08:41   |   回复数:1
popeye69
一派掌门
谢谢楼主分享。
1月前 #2楼
游客组