fg603603
一代宗师

[更 早] [日本] [喜剧] [BD-1080P] 妖怪大战争 The.Great.Yokai.War.2005.1080p.BluRay.x264-CiNEPHiLiA 19.28GB

-->

帖子完整标题:妖怪大战争 The.Great.Yokai.War.2005.1080p.BluRay.x264-CiNEPHiLiA 19.28GB



◎译  名 妖怪大战争/A Grande Guerra Yokai
◎片  名 妖怪大戦争
◎年  代 2005
◎产  地 日本
◎类  别 喜剧 / 恐怖 / 家庭 / 奇幻 / 冒险
◎语  言 日语
◎上映日期 2005-08-06(日本)
◎豆瓣评分 6.4/10 from 1679 users
◎豆瓣链接 https://movie.douban.com/subject/1421885/
◎片  长 124分钟
◎导  演 三池崇史 Takashi Miike
◎编  剧 荒俣宏 Hiroshi Aramata / 三池崇史 Takashi Miike
◎主  演 神木隆之介 Ry?nosuke Kamiki
      宫迫博之 Hiroyuki Miyasako
      栗山千明 Chiaki Kuriyama
      菅原文太 Bunta Sugawara
      南果步 Kaho Minami
      成海璃子 Riko Narumi
      丰川悦司 Etsushi Toyokawa
      忌野清志郎 Kiyoshiro Imawano
      高桥真唯 Mai Takahashi
      近藤正臣 Masaomi Kondo
      阿部隆史 Sadao Abe
      冈村隆史 Takashi Okamura
      竹中直人 Naoto Takenaka
      远藤宪一 Ken'ichi End?
      石桥莲司 Renji Ishibashi
      根岸季衣 Toshie Negishi
      三轮明日美 Asumi Miwa
      荒俣宏 Hiroshi Aramata
      京极夏彦 Natsuhiko Ky?goku
      水木茂 Shigeru Mizuki
      永泽俊矢 Toshiya Nagasawa
      佐野史郎 Shir? Sano
      柄本明 Akira Emoto
      山田豆 Mame Yamada
      田口浩正 Hiromasa Taguchi
      吉井怜 Rei Yoshii
      宫部美雪 Miyuki Miyabe
      德井优 Yu Tokui
      津田宽治 Kanji Tsuda
      萤原彻 T?ru Hotohara
      板尾创路 Itsuji Itao
      大泽在昌 Arimasa ?sawa
      佐佐木麻绪 Mao Sasaki
      田中要次 Y?ji Tanaka
      中村公彦

◎标  签 日本 | 三池崇史 | 日本电影 | 奇幻 | 魔幻 | 神木隆之介 | 栗山千明 | 2005

◎简  介

  由于父母离异,刚满10岁的忠志(神木隆之介饰)只好跟母亲来到乡下跟外公一起生活。一次偶然,忠志参拜神社时被选为“麒麟送子”。当地有个传说,被选为麒麟送子的孩子可在大天狗山顶,拿到传说中大天狗守护的飞剑。传说那飞剑是用来维护和平的,伙伴们揶揄他不敢上大天狗山取麒麟送子的宝剑。他在尝试一半后,被吓回来。
  
  另一方面,千年魔人加藤保宪(丰川悦司饰)复活,他利用废旧物品的怨气,将其与抓来的妖怪们扔到大怨灵炼火中融合形成邪恶的怪物军团,并率领它们企图毁灭人类。在山神、河童和川姬等妖怪的努力下,忠志通过了考验。为了保卫世界,忠志决定和妖怪们齐心合力,和大恶人决一死战,妖怪大战争正式展开!

◎获奖情况

  第29届日本电影学院奖 ?(2006)
  最佳新人 神木隆之介

Video
ID : 1
Format : AVC
Format/Info : Advanced Video Codec
Format profile : [email protected]
Format settings : CABAC / 4 Ref Frames
Format settings, CABAC : Yes
Format settings, Reference frames : 4 frames
Codec ID : V_MPEG4/ISO/AVC
Duration : 2 h 4 min
Bit rate : 14.3 Mb/s
Width : 1 920 pixels
Height : 1 038 pixels
Display aspect ratio : 1.85:1
Frame rate mode : Constant
Frame rate : 23.976 (24000/1001/189150) FPS
Color space : YUV
Chroma subsampling : 4:2:0
Bit depth : 8 bits
Scan type : Progressive
Bits/(Pixel*Frame) : 0.299
Stream size : 12.4 GiB (64%)
Writing library : x264 core 164 r3075 66a5bc1
Encoding settings : cabac=1 / ref=4 / deblock=1:-3:-3 / analyse=0x3:0x133 / me=umh / subme=9 / psy=1 / psy_rd=1.00:0.00 / mixed_ref=1 / me_range=24 / chroma_me=1 / trellis=2 / 8x8dct=1 / cqm=0 / deadzone=21,11 / fast_pskip=0 / chroma_qp_offset=-2 / threads=24 / lookahead_threads=2 / sliced_threads=0 / nr=0 / decimate=0 / interlaced=0 / bluray_compat=0 / constrained_intra=0 / bframes=3 / b_pyramid=2 / b_adapt=2 / b_bias=0 / direct=3 / weightb=1 / open_gop=0 / weightp=2 / keyint=250 / keyint_min=23 / scenecut=40 / intra_refresh=0 / rc_lookahead=60 / rc=crf / mbtree=0 / crf=17.0 / qcomp=0.60 / qpmin=0 / qpmax=69 / qpstep=4 / vbv_maxrate=62500 / vbv_bufsize=78125 / crf_max=0.0 / nal_hrd=none / filler=0 / ip_ratio=1.40 / pb_ratio=1.30 / aq=3:0.65
Default : Yes
Forced : No

Audio #1
ID : 2
Format : DTS XLL
Format/Info : Digital Theater Systems
Commercial name : DTS-HD Master Audio
Codec ID : A_DTS
Duration : 2 h 4 min
Bit rate mode : Variable
Bit rate : 4 176 kb/s
Channel(s) : 6 channels
Channel layout : C L R Ls Rs LFE
Sampling rate : 48.0 kHz
Frame rate : 93.750 FPS (512 SPF)
Bit depth : 24 bits
Compression mode : Lossless
Stream size : 3.62 GiB (19%)
Language : Japanese
Default : Yes
Forced : No

Audio #2
ID : 3
Format : DTS XLL
Format/Info : Digital Theater Systems
Commercial name : DTS-HD Master Audio
Codec ID : A_DTS
Duration : 2 h 4 min
Bit rate mode : Variable
Bit rate : 3 647 kb/s
Channel(s) : 6 channels
Channel layout : C L R Ls Rs LFE
Sampling rate : 48.0 kHz
Frame rate : 93.750 FPS (512 SPF)
Bit depth : 24 bits
Compression mode : Lossless
Stream size : 3.16 GiB (16%)
Title : English Dub
Language : English
Default : No
Forced : No

Audio #3
ID : 4
Format : AAC LC
Format/Info : Advanced Audio Codec Low Complexity
Codec ID : A_AAC-2
Duration : 2 h 4 min
Bit rate : 104 kb/s
Channel(s) : 2 channels
Channel layout : L R
Sampling rate : 48.0 kHz
Frame rate : 46.875 FPS (1024 SPF)
Compression mode : Lossy
Stream size : 92.7 MiB (0%)
Title : Commentary by Japanese cinema expert Tom Mes
Language : English
Default : No
Forced : No

Text #1
ID : 5
Format : PGS
Muxing mode : zlib
Codec ID : S_HDMV/PGS
Codec ID/Info : Picture based subtitle format used on BDs/HD-DVDs
Duration : 2 h 3 min
Bit rate : 12.5 kb/s
Count of elements : 1584
Stream size : 11.0 MiB (0%)
Language : English
Default : No
Forced : No

Text #2
ID : 6
Format : UTF-8
Codec ID : S_TEXT/UTF8
Codec ID/Info : UTF-8 Plain Text
Duration : 2 h 3 min
Bit rate : 21 b/s
Count of elements : 792
Stream size : 19.4 KiB (0%)
Language : English
Default : Yes
Forced : Yes

Menu
00:00:00.000 : :Chapter 01
00:09:13.511 : :Chapter 02
00:21:10.144 : :Chapter 03
00:31:34.768 : :Chapter 04
00:39:11.432 : :Chapter 05
00:48:12.973 : :Chapter 06
00:57:12.512 : :Chapter 07
01:09:13.191 : :Chapter 08
01:20:27.406 : :Chapter 09
01:29:49.175 : :Chapter 10
01:42:03.159 : :Chapter 11
01:54:44.711 : :Chapter 12





1 个附件 售价 大小 下载 时间

The.Great.Yokai.War.2005.1080p.BluRay.x264-CiNEPHiLiA.torrent 0 金币 24.85K 1295 次 1月前

#1楼
发帖时间:2021-11-29 10:08:47   |   回复数:2
popeye69
一派掌门
谢谢楼主分享。
1月前 #2楼
cass666
武林高手
全网没字幕
1月前 #3楼
游客组