fg603603
一代宗师

[2019] [欧美] [喜剧] [BD-720P] 七鱼宴 Feast.of.the.Seven.Fishes.2019.720p.BluRay.x264-YAMG 2.37GB

-->

帖子完整标题:七鱼宴 Feast.of.the.Seven.Fishes.2019.720p.BluRay.x264-YAMG 2.37GB



◎译  名 七鱼宴/7 Fishes & Christmas 83'
◎片  名 Feast of the Seven Fishes
◎年  代 2019
◎产  地 美国
◎类  别 喜剧
◎语  言 英语
◎上映日期 2019-11-15(美国)
◎豆瓣评分 6.5/10 from 173 users
◎豆瓣链接 https://movie.douban.com/subject/34883066/
◎片  长 99分钟
◎导  演 罗伯特·汀奈尔 Robert Tinnell
◎编  剧 罗伯特·汀奈尔 Robert Tinnell
◎主  演 斯凯勒·吉桑多 Skyler Gisondo
      麦迪森·伊瑟曼 Madison Iseman
      乔什·赫尔曼 Josh Helman
      雷·阿布鲁佐 Ray Abruzzo
      艾狄森·蒂姆林 Addison Timlin
      保罗·本-维克托 Paul Ben-Victor
      乔·潘托里亚诺 Joe Pantoliano
      林恩·科恩 Lynn Cohen

◎标  签 喜剧 | 美国 | 剧情 | 2019 | 家庭 | 美国电影 | 雷·阿布鲁佐 | 艾狄森·蒂姆林

◎简  介

  December 23, 1983: Just days before Christmas, the Oliverio family readies their Feast of the Seven Fishes, an Italian tradition stretching back to the old country of Calabria. Amidst the preparations, Tony Oliverio, a young man with big dreams and a bigger heart, wonders if he'll find love this Christmas season or spend it alone with his loud and loving family - Great Grandma Nonnie, Grandpa Johnny, Great Uncles Frankie and Carmine, his parents, his brother, and a host of friends. When Sarah, the girlfriend of his best friend Angelo, introduces Tony to Beth, it looks like Tony's holiday experience might take a turn for the better. That is unless Nonnie thinks Beth isn't good enough for her great-grandson, and Beth's Ivy League suitor doesn't steal her heart first. Come on inside, where it's warm, and the smells of cooking fish permeate the air, and let's have a visit.

Video
ID : 1
Format : AVC
Format/Info : Advanced Video Codec
Format profile : [email protected]
Format settings : CABAC / 9 Ref Frames
Format settings, CABAC : Yes
Format settings, Reference frames : 9 frames
Codec ID : V_MPEG4/ISO/AVC
Duration : 1 h 39 min
Bit rate : 2 639 kb/s
Width : 1 280 pixels
Height : 676 pixels
Display aspect ratio : 1.893
Frame rate mode : Constant
Frame rate : 23.976 (24000/1001/189150) FPS
Color space : YUV
Chroma subsampling : 4:2:0
Bit depth : 8 bits
Scan type : Progressive
Bits/(Pixel*Frame) : 0.127
Stream size : 1.83 GiB (77%)
Writing library : x264 core 164 r3075 66a5bc1
Encoding settings : cabac=1 / ref=9 / deblock=1:-3:-3 / analyse=0x3:0x133 / me=umh / subme=10 / psy=1 / psy_rd=1.00:0.00 / mixed_ref=1 / me_range=32 / chroma_me=1 / trellis=2 / 8x8dct=1 / cqm=0 / deadzone=21,11 / fast_pskip=0 / chroma_qp_offset=-2 / threads=21 / lookahead_threads=3 / sliced_threads=0 / nr=0 / decimate=0 / interlaced=0 / bluray_compat=0 / constrained_intra=0 / bframes=8 / b_pyramid=2 / b_adapt=2 / b_bias=0 / direct=3 / weightb=1 / open_gop=0 / weightp=2 / keyint=250 / keyint_min=23 / scenecut=40 / intra_refresh=0 / rc=crf / mbtree=0 / crf=17.0 / qcomp=0.60 / qpmin=0 / qpmax=69 / qpstep=4 / ip_ratio=1.40 / pb_ratio=1.30 / aq=3:0.60
Language : English
Default : Yes
Forced : No
Color range : Limited
Matrix coefficients : BT.709

Audio #1
ID : 2
Format : AC-3
Format/Info : Audio Coding 3
Commercial name : Dolby Digital
Codec ID : A_AC3
Duration : 1 h 39 min
Bit rate mode : Constant
Bit rate : 640 kb/s
Channel(s) : 6 channels
Channel layout : L R C LFE Ls Rs
Sampling rate : 48.0 kHz
Frame rate : 31.250 FPS (1536 SPF)
Compression mode : Lossy
Stream size : 453 MiB (19%)
Title : English
Language : English
Service kind : Complete Main
Default : Yes
Forced : No

Audio #2
ID : 3
Format : AAC LC
Format/Info : Advanced Audio Codec Low Complexity
Codec ID : A_AAC-2
Duration : 1 h 39 min
Bit rate : 108 kb/s
Channel(s) : 2 channels
Channel layout : L R
Sampling rate : 48.0 kHz
Frame rate : 46.875 FPS (1024 SPF)
Compression mode : Lossy
Delay relative to video : 20 ms
Stream size : 76.6 MiB (3%)
Title : Commentary with Writer/Director Robert Tinnell
Language : English
Default : No
Forced : No

Text #1
ID : 4
Format : UTF-8
Codec ID : S_TEXT/UTF8
Codec ID/Info : UTF-8 Plain Text
Duration : 1 h 34 min
Bit rate : 83 b/s
Count of elements : 1711
Stream size : 58.2 KiB (0%)
Title : English
Language : English
Default : No
Forced : No

Text #2
ID : 5
Format : UTF-8
Codec ID : S_TEXT/UTF8
Codec ID/Info : UTF-8 Plain Text
Duration : 1 h 36 min
Bit rate : 88 b/s
Count of elements : 1864
Stream size : 62.4 KiB (0%)
Title : English SDH
Language : English
Default : No
Forced : No

Text #3
ID : 6
Format : PGS
Muxing mode : zlib
Codec ID : S_HDMV/PGS
Codec ID/Info : Picture based subtitle format used on BDs/HD-DVDs
Duration : 1 h 36 min
Bit rate : 51.5 kb/s
Count of elements : 2561
Stream size : 35.4 MiB (1%)
Title : English SDH PGS
Language : English
Default : No
Forced : No

Menu
00:00:00.000 : en:Chapter 01
00:08:10.949 : en:Chapter 02
00:17:02.021 : en:Chapter 03
00:24:58.622 : en:Chapter 04
00:33:18.330 : en:Chapter 05
00:41:27.485 : en:Chapter 06
00:49:11.407 : en:Chapter 07
00:57:31.865 : en:Chapter 08
01:04:32.285 : en:Chapter 09
01:12:40.898 : en:Chapter 10
01:20:19.189 : en:Chapter 11
01:27:56.271 : en:Chapter 12





1 个附件 售价 大小 下载 时间

Feast.of.the.Seven.Fishes.2019.720p.BluRay.x264-YAMG.torrent 0 金币 24.42K 273 次 1月前

#1楼
发帖时间:2021-11-29 09:28:28   |   回复数:1
popeye69
一派掌门
谢谢楼主分享。
1月前 #2楼
游客组